<?xml version="1.0" standalone="no"?>
<!DOCTYPE svg PUBLIC "-//W3C//DTD SVG 1.1//EN" "http://www.w3.org/Graphics/SVG/1.1/DTD/svg11.dtd" >
<svg xmlns="http://www.w3.org/2000/svg" xmlns:xlink="http://www.w3.org/1999/xlink" version="1.1">
<metadata>
Created by FontForge 20170812 at Thu Aug  4 04:23:47 2022
 By www-data
</metadata>
<defs>
<font id="HeyHusbandRegular" horiz-adv-x="306" >
  <font-face 
    font-family="Hey Husband"
    font-weight="400"
    font-stretch="normal"
    units-per-em="1000"
    panose-1="0 0 0 0 0 0 0 0 0 0"
    ascent="800"
    descent="-200"
    x-height="450.478"
    cap-height="834.957"
    bbox="-209.999 -481.632 921.255 1050.45"
    underline-thickness="50"
    underline-position="-100"
    unicode-range="U+000A-20AC"
  />
<missing-glyph horiz-adv-x="527" 
d="M50 700h427v-700h-427v700zM78 680l185 -309l186 309h-371zM251 350l-180 300v-601zM264 329l-185 -308h370zM276 350l181 -303v605z" />
    <glyph glyph-name=".notdef" horiz-adv-x="527" 
d="M50 700h427v-700h-427v700zM78 680l185 -309l186 309h-371zM251 350l-180 300v-601zM264 329l-185 -308h370zM276 350l181 -303v605z" />
    <glyph glyph-name=".null" horiz-adv-x="0" 
 />
    <glyph glyph-name=".null" horiz-adv-x="0" 
 />
    <glyph glyph-name="LF" unicode="&#xa;" horiz-adv-x="0" 
 />
    <glyph glyph-name="controlCR" unicode="&#xd;" horiz-adv-x="0" 
 />
    <glyph glyph-name="space" unicode=" " 
 />
    <glyph glyph-name="exclam" unicode="!" horiz-adv-x="235" 
d="M140.889 836.856c55.6172 -106.324 44.0352 -233.815 41.9229 -349.859c-2.26172 -123.985 -6.93066 -247.206 -16.6504 -370.849c-2.22266 -28.2148 -29.0186 -42.2607 -55.2217 -44.0918c-21.6182 -1.51074 -60.6201 8.0332 -60.8174 35.9756
c-0.878906 122.343 3.1709 243.908 9.69727 366.066c6.24512 116.94 12.71 232.483 -2.0957 349.085c-4.86621 38.3604 68.6621 41.3955 83.165 13.6729zM124.023 32.2588c11.6699 1.78711 31.8926 -2.2627 39.46 -12.5137
c19.1104 -25.8828 14.7051 -66.8262 16.3438 -97.7422c1.43164 -27.0684 -30.4512 -39.542 -52.2891 -41.7471c-19.9404 -2.01562 -58.0908 8.05957 -57.5898 34.0654c0.404297 21.2402 0.145508 42.6074 2.0166 63.7773c1.08008 12.2236 1.28613 24.1348 9.09961 34.3555
c10.5586 13.8047 26.8447 17.332 42.959 19.8047z" />
    <glyph glyph-name="quotedbl" unicode="&#x22;" horiz-adv-x="291" 
d="M105.85 692.904c13.124 -0.293945 36.3135 -7.24023 36.1553 -24.3955c-0.206055 -22.6592 -4.3125 -44.8789 -7.61523 -67.2607c-3.02637 -20.4932 -35.958 -25.7549 -51.3564 -24.3799c-18.3682 1.64258 -36.292 14.4678 -32.5283 34.3379
c3.77734 19.9531 6.96191 39.8145 13.335 59.1221c5.52051 16.7207 26.3125 22.9316 42.0098 22.5762zM237.19 674.688c9.54395 -30.0156 -1.71387 -67.8271 -3.68164 -98.9102c-1.23828 -19.5322 -20.3262 -29.2607 -38.2148 -30.5127
c-13.2471 -0.926758 -44.2861 5.75781 -42.0898 24.8984c3.83887 33.4502 4.94141 78.1924 26.5684 105.679c10.8877 13.8398 50.4385 20.793 57.418 -1.1543z" />
    <glyph glyph-name="quotedbl" unicode="&#x201d;" horiz-adv-x="291" 
d="M105.85 692.904c13.124 -0.293945 36.3135 -7.24023 36.1553 -24.3955c-0.206055 -22.6592 -4.3125 -44.8789 -7.61523 -67.2607c-3.02637 -20.4932 -35.958 -25.7549 -51.3564 -24.3799c-18.3682 1.64258 -36.292 14.4678 -32.5283 34.3379
c3.77734 19.9531 6.96191 39.8145 13.335 59.1221c5.52051 16.7207 26.3125 22.9316 42.0098 22.5762zM237.19 674.688c9.54395 -30.0156 -1.71387 -67.8271 -3.68164 -98.9102c-1.23828 -19.5322 -20.3262 -29.2607 -38.2148 -30.5127
c-13.2471 -0.926758 -44.2861 5.75781 -42.0898 24.8984c3.83887 33.4502 4.94141 78.1924 26.5684 105.679c10.8877 13.8398 50.4385 20.793 57.418 -1.1543z" />
    <glyph glyph-name="quotedbl" unicode="&#x201c;" horiz-adv-x="291" 
d="M105.85 692.904c13.124 -0.293945 36.3135 -7.24023 36.1553 -24.3955c-0.206055 -22.6592 -4.3125 -44.8789 -7.61523 -67.2607c-3.02637 -20.4932 -35.958 -25.7549 -51.3564 -24.3799c-18.3682 1.64258 -36.292 14.4678 -32.5283 34.3379
c3.77734 19.9531 6.96191 39.8145 13.335 59.1221c5.52051 16.7207 26.3125 22.9316 42.0098 22.5762zM237.19 674.688c9.54395 -30.0156 -1.71387 -67.8271 -3.68164 -98.9102c-1.23828 -19.5322 -20.3262 -29.2607 -38.2148 -30.5127
c-13.2471 -0.926758 -44.2861 5.75781 -42.0898 24.8984c3.83887 33.4502 4.94141 78.1924 26.5684 105.679c10.8877 13.8398 50.4385 20.793 57.418 -1.1543z" />
    <glyph glyph-name="numbersign" unicode="#" horiz-adv-x="672" 
d="M620.494 669.376c-19.1807 -69.8828 -47.2432 -137.421 -67.6709 -207.058c-9.60156 -32.7305 -18.5 -65.6582 -26.9199 -98.7002c15.3418 -1.26074 30.6924 -2.92969 46.0381 -5.08203c27.9775 -3.92188 13.9004 -32.4795 -9.36914 -29.2158
c-14.6787 2.05566 -29.3613 3.6543 -44.0439 4.85742c-4.66406 -18.9648 -9.19238 -37.9609 -13.6025 -56.9873c14.6611 -1.91016 29.2695 -4.48828 43.8164 -7.94922c11.1074 -2.64844 18.6396 -13.6592 13.6416 -24.209
c-5.53418 -11.6738 -21.7764 -15.2666 -33.4727 -14.0059c-11.248 1.21191 -22.4834 2.33594 -33.7188 3.35938c-14.8584 -66.3564 -28.9307 -133.121 -45.6865 -198.972c-8.72754 -34.3203 -16.5635 -69.167 -27.1133 -102.964
c-5.73633 -18.3721 -11.8457 -36.8369 -18.5742 -54.875c-2.90332 -7.78711 -5.85059 -15.7461 -9.27246 -23.3311c-5.25293 -11.6348 -12.0518 -17.8721 -19.791 -27.6445c-10.4795 -13.2295 -49.96 -20.6562 -56.2842 1.13281
c-3.0127 10.3916 -7.51465 17.292 -8.07227 28.4697c-0.381836 7.66406 0.632812 15.8291 1.15527 23.5195c1.25195 18.4072 3.28125 36.8232 5.1123 55.1865c3.81641 38.2334 10.9443 76.2998 16.7021 114.287c9.60547 63.4092 21.6045 126.994 34.8906 189.872
c-19.1143 -0.641602 -38.2422 -2.04297 -57.4141 -4.37988c-0.232422 -1.04102 -0.482422 -2.07324 -0.714844 -3.11426c-14.8896 -67.0938 -27.2842 -134.588 -39.3848 -202.227c-12.3379 -68.9561 -20.8232 -139.238 -39.9424 -206.724
c-9.54395 -33.6963 -84.957 -36.7051 -88.5195 2.06445c-6.33789 69.0088 2.49512 138.853 10.5234 207.413c7.21582 61.6387 17.124 123.066 28.1748 184.165c-32.2295 -4.97168 -64.4189 -10.168 -96.5205 -15.627c-10.3477 -1.76172 -25.6895 -2.04688 -32.1191 8.43262
c-5.64844 9.20605 -0.513672 19.6416 9.28027 23.6777c38.0752 15.6973 79.8662 20.5811 120.256 27.0596c2.47266 0.399414 4.94141 0.750977 7.41406 1.1416c3.26758 17.1201 6.64941 34.2451 10.1631 51.3564c-29.2031 -4.96289 -58.3184 -10.3252 -87.3281 -15.749
c-9.02539 -1.69141 -23.6729 -1.48047 -28.1611 8.81934c-4.09375 9.39062 5.41113 18.4561 14.2393 20.002c35.8223 6.27148 71.7803 12.5781 107.831 18.3096c22.2021 103.201 49.4727 205.762 84.9346 304.777c18.6973 52.209 142.344 47.9219 124.819 -14.8193
c-25.3516 -90.7764 -51.0762 -181.245 -74.4375 -272.417c18.4951 1.7002 37.0039 3.05273 55.5254 3.9707c9.1709 37.5527 18.9482 74.96 29.5859 112.117c21.1172 73.7744 43.5254 149.104 80.6562 216.61c21.6309 39.3271 128.711 31.3379 113.374 -24.5518z
M377.16 280.133c4.07129 18.4473 8.26074 36.8672 12.5869 55.2617c-18.71 -1.03223 -37.4111 -2.52539 -56.0859 -4.3916c-4.5459 -18.2051 -8.95117 -36.4453 -13.251 -54.7256c18.8906 1.45801 37.8203 2.8457 56.75 3.85547z" />
    <glyph glyph-name="dollar" unicode="$" horiz-adv-x="513" 
d="M352.106 304.225c68.4863 -60.3438 144.365 -155.801 95.9463 -251.22c-24.877 -49.0156 -81.3418 -82.4268 -139.621 -91.8613c0.588867 -7.88867 1.11133 -15.7773 1.52441 -23.6748c1.58105 -30.415 -56.2715 -31.9609 -63.0527 -4.40527
c-2.33203 9.47852 -4.38281 19.0186 -6.23145 28.6025c-13.334 2.60449 -26.1064 6.76855 -37.8594 12.6934c-83.6475 42.1689 -118.728 143.464 -85.6113 229.523c6.86914 17.8408 49.8105 15.1484 42.3438 -5.0293c-20.1074 -54.3389 -12.5225 -115.508 25.2939 -160.448
c13.3428 -15.8604 30.3975 -30.5781 49.7314 -39.1914c-11.2305 84.1006 -7.62891 171.147 -5.16016 256.548c-56.6455 45.1338 -115.562 87.9873 -154.138 152.099c-22.8262 37.9346 -34.1357 88.7998 -16.9668 131.104c17.876 44.0527 61.2529 76.8926 104.357 93.8809
c23.1553 9.12695 47.1846 14.1211 70.8057 14.9561c0.399414 31.8213 0.807617 63.6426 1.20703 95.4678c0.232422 18.833 40.1045 21.3584 40.2539 2.81445c0.267578 -33.8018 0.478516 -67.6074 0.663086 -101.409c49.1084 -9.31543 92.6211 -38.6982 117.371 -89.4443
c11.5771 -23.7441 -37.6719 -31.5889 -48.8545 -12.8828c-14.9023 24.9336 -40.4033 41.4307 -68.249 46.9736c0.355469 -74.4951 0.68457 -148.99 1.2334 -223.485c24.9512 -20.5898 50.7197 -40.209 75.0127 -61.6113zM231.175 406.224
c0.311523 60.9014 0.881836 121.798 1.59375 182.694c-3.3252 -0.742188 -6.63672 -1.60742 -9.89551 -2.70117c-39.8496 -13.3516 -72.3994 -47.8037 -57.9141 -91.4961c11.709 -35.3125 38.9229 -63.3037 66.2158 -88.4971zM323.501 13.8799
c34.8818 25.5137 49.9287 62.8887 33.002 104.565c-15.0654 37.0869 -44.1982 66.1279 -73.8887 92.5557c1.7002 -23.4404 3.75098 -46.8809 6.1582 -70.3652c4.73438 -46.2051 11.1777 -92.2871 15.9434 -138.496c6.49609 3.35547 12.7725 7.34375 18.7852 11.7402z" />
    <glyph glyph-name="percent" unicode="%" horiz-adv-x="676" 
d="M593.632 684.542c24.7324 -8.19141 41.8457 -31.8613 25.9639 -56.1494c-80.9512 -123.761 -161.178 -246.485 -228.887 -378.253c-34.3555 -66.8477 -67.7178 -133.964 -99.1963 -202.23c-16.9492 -36.7578 -34.7988 -73.4365 -53.5791 -109.298
c-18.7236 -35.7432 -35.875 -74.0596 -67.5156 -99.9336c-13.0186 -10.6426 -41.7344 -9.5752 -45.7754 9.68848c-7.44043 35.4707 10.6025 76.418 21.9434 110.031c12.4824 36.9902 25.9131 73.9326 40.6621 110.075c28.4297 69.6807 57.7998 139.234 91.7861 206.416
c67.748 133.925 142.238 268.139 232.062 388.685c17.8096 23.9023 55.6875 29.8623 82.5361 20.9688zM259.842 396.55c-16.2637 -55.8066 -82.7832 -83.4121 -136.323 -68.6191c-71.9912 19.8965 -82.3828 93.6182 -67.8799 156.755
c4.82227 20.9902 27.5293 32.1904 51.4795 33.877c29.2695 20.2168 72.2158 25.5225 101.173 9.10938c41.6943 -23.625 64.7227 -85.9229 51.5508 -131.122zM159.951 505.518c-0.764648 -0.109375 -1.53711 -0.249023 -2.30566 -0.398438
c9.49121 -7.91895 14.7178 -19.2461 11.9863 -33.96c-4.96289 -26.7217 -11.0244 -55.877 3.56152 -80.7627c0.689453 -1.17676 2.94727 -3.83398 4.08496 -5.33203c0.782227 0.953125 4.25195 2.14355 6.46582 4.10645c4.58984 4.07129 8.39355 9.5918 11.125 15.0947
c11.1953 22.5449 14.1113 57.5459 0.939453 79.7354c-7.7832 13.1016 -19.6943 23.7871 -35.8574 21.5166zM490.942 185.228c33.4414 4.62891 68.6006 -4.44141 90.1523 -32.1904c29.7744 -38.334 36.5293 -87.9961 6.10547 -128.276
c-36.6123 -48.4805 -110.022 -61.1514 -161.946 -30.0771c-57.6465 34.5049 -51.8926 113.914 -30.4902 168.921c12.3994 31.8652 69.7119 40.3066 96.1787 21.623zM518.248 55.501c16.918 15.9395 29.9102 47.1494 23.4014 70.502
c-5.25293 18.8291 -20.9326 26.6426 -37.8594 27.4336c-0.149414 -0.904297 -0.246094 -1.78711 -0.457031 -2.72266c-6.13574 -27.0508 -17.582 -69.3291 -6.22852 -96.2656c0.930664 -2.21387 3.02148 -5.81543 3.41211 -6.5752
c0.650391 -1.26465 1.48047 -2.01172 2.2666 -2.46875c-1.1416 -0.0302734 -1.16309 -0.364258 0.0224609 -0.0878906c0.0302734 0.00390625 0.0605469 0.0214844 0.0908203 0.0263672c1.9502 -1.05859 3.4834 -0.210938 0.716797 0.0478516
c-0.228516 0.0214844 -0.351562 0.00390625 -0.536133 0.00878906c5.49023 1.39648 11.2529 6.4082 15.1709 10.1016z" />
    <glyph glyph-name="ampersand" unicode="&#x26;" horiz-adv-x="623" 
d="M572.396 17.2168c4.28711 -9.84668 -5.6416 -18.2295 -14.4395 -20.2803c-19.0176 -4.44922 -36.3662 -13.6377 -55.1953 -19.2158c-18.9521 -5.61719 -38.1592 -9.96094 -57.4453 -14.2607c-16.5186 -3.68457 -33.1162 -6.95703 -49.7578 -9.99609
c2.70117 -46.166 6.07031 -92.3271 10.4277 -138.479c1.86621 -19.7559 -40.5791 -22.7773 -42.7178 -2.98633c-4.82715 44.6416 -8.53809 89.3574 -11.3447 134.122c-8.65723 -1.32227 -17.3184 -2.60449 -25.9971 -3.79492
c-37.2148 -5.10352 -75.0576 -9.61816 -112.522 -12.2314c-34.8027 -2.42871 -82.9492 2.9248 -102.429 36.6348c-18.3545 31.7549 8.27051 65.5781 29.6377 88.0791c23.002 24.2178 49.6748 42.5684 78.0527 59.9307c1.9502 1.19434 3.92188 2.34473 5.88477 3.51758
c-31.54 8.36719 -61.8232 21.5654 -88.251 40.416c-166.391 118.706 -65.2227 346.587 76.6689 437.684c43.5869 27.9824 95.1895 48.0283 146.419 49.4209c1.22559 24.4199 2.46387 48.8223 3.68945 73.207c0.861328 17.1465 37.2412 19.1709 36.5557 2.55566
c-1.07129 -26.0762 -2.1123 -52.1523 -3.12207 -78.2236c23.208 -3.81641 45.9111 -12.0732 67.2871 -25.8994c74.4287 -48.1416 105.626 -140.218 104.453 -225.596c-0.544922 -39.5996 -83.2568 -45.6172 -85.2334 -5.96094
c-3.5791 71.7852 -11.1338 161.647 -84.4385 198.238c-1.39258 0.698242 -2.79785 1.31348 -4.20312 1.91992c-4.4668 -124.538 -7.58105 -249.037 -6.83398 -373.487c26.2256 1.9502 52.4336 3.6543 78.8301 1.79199c24.8291 -1.74805 53.3994 -19.334 50.8867 -46.7676
c-2.1875 -23.8887 -29.2998 -39.5996 -52.4814 -43.2842c-21.4951 -6.39941 -43.5391 -10.9102 -65.8418 -13.835c-3.30273 -1.1416 -6.55762 -2.29199 -9.75098 -3.4209c0.830078 -33.1338 2.02441 -66.2588 3.54395 -99.3838
c18.6445 2.80176 37.2842 5.65625 55.8896 8.66016c15.4297 2.49023 30.7891 4.73438 46.3066 6.60938c16.2988 1.97168 32.8311 0.241211 48.9189 3.25879c9.15332 1.71777 24.0029 1.49805 28.5527 -8.94238zM271.147 -7.4834
c26.0059 2.10352 51.9316 5.13086 77.7744 8.71484c-1.375 29.625 -2.38086 59.2676 -3.05762 88.9229c-13.8398 -6.22363 -27.416 -13.0625 -40.79 -20.1777c-21.0117 -11.1689 -41.5889 -23.0322 -60.334 -37.7588c-8.80664 -6.91797 -17.2393 -14.1689 -24.3672 -22.8389
c-2.01562 -2.45117 -10.6641 -14.7314 -13.4307 -17.2002c3.50977 0.369141 17.1035 -1.29102 19.5723 -1.3916c14.9287 -0.597656 29.7656 0.526367 44.6328 1.72949zM344.78 209.708c0.478516 127.613 5.76172 255.343 11.9639 382.728
c-43.543 -2.52148 -87.0205 -35.7041 -114.208 -65.9258c-40.6318 -45.1689 -70.9551 -105.714 -72.7949 -167.3c-0.961914 -32.291 4.72559 -66.3691 24.5645 -92.8008c7.03223 -9.36816 18.9521 -20.2471 25.4658 -24.8584
c6.42969 -4.5498 13.2949 -8.25684 20.0762 -12.21c0.478516 -0.28125 5.32324 -2.70117 5.95605 -3.12695c2.23535 -0.90918 4.50195 -1.76562 6.75098 -2.60449c8.49023 -3.16211 17.1426 -5.81934 25.9268 -8.03711c2.09961 -0.53125 4.21191 -1.00098 6.32031 -1.48828
c1.71289 -0.342773 4.14648 -0.821289 5.06836 -0.944336c9.86914 -1.2959 19.624 -2.70605 29.5723 -3.41309c3.61914 -0.258789 7.26465 -0.508789 10.8965 -0.623047c1.55078 0.0566406 3.8916 0.135742 7.39648 0.262695
c2.34961 0.0830078 4.69531 0.232422 7.04492 0.341797z" />
    <glyph glyph-name="quotesingle" unicode="'" horiz-adv-x="189" 
d="M59.0713 678.271c3.16211 37.2451 82.3486 42.2129 80.3066 5.61816c-1.97168 -35.2031 -3.93945 -70.4062 -5.90723 -105.609c-2.22266 -39.7666 -86.5166 -42.7051 -83.3848 -5.83301c2.99512 35.2734 5.99023 70.5508 8.98535 105.824z" />
    <glyph glyph-name="quotesingle" unicode="&#x2019;" horiz-adv-x="189" 
d="M59.0713 678.271c3.16211 37.2451 82.3486 42.2129 80.3066 5.61816c-1.97168 -35.2031 -3.93945 -70.4062 -5.90723 -105.609c-2.22266 -39.7666 -86.5166 -42.7051 -83.3848 -5.83301c2.99512 35.2734 5.99023 70.5508 8.98535 105.824z" />
    <glyph glyph-name="quotesingle" unicode="&#x2018;" horiz-adv-x="189" 
d="M59.0713 678.271c3.16211 37.2451 82.3486 42.2129 80.3066 5.61816c-1.97168 -35.2031 -3.93945 -70.4062 -5.90723 -105.609c-2.22266 -39.7666 -86.5166 -42.7051 -83.3848 -5.83301c2.99512 35.2734 5.99023 70.5508 8.98535 105.824z" />
    <glyph glyph-name="parenleft" unicode="(" horiz-adv-x="489" 
d="M437.612 -206.398c6.68945 -15.75 -8.90527 -25.6475 -21.5283 -30.2373c-52.9775 -19.2461 -109.012 -26.3652 -164.212 -13.1621c-56.0693 13.4092 -100.136 48.3662 -131.776 95.7305c-25.9795 38.8926 -39.0459 85.9062 -49.0244 131.079
c-11.5254 52.1787 -17.7188 105.438 -20.0156 158.793c-4.64648 108.024 6.46582 216.181 26.0674 322.352c18.0957 98.0098 44.1807 203.579 95.4365 290.051c39.2217 66.1582 134.891 171.086 211.827 93.2578c18.5527 -18.7627 -25.0742 -32.6641 -39.4668 -19.2158
c-20.3623 19.0225 -67.2178 -59.8076 -73.7227 -72.1191c-19.5322 -36.9688 -32.0801 -78.4785 -42.1162 -118.903c-20.6602 -83.209 -33.8848 -169.51 -41.9531 -254.822c-8.28809 -87.6357 -12.1182 -176.598 -4.7832 -264.423
c6.60547 -79.084 19.9834 -163.25 55.832 -234.912c29.875 -59.7148 92.8975 -82.3477 156.868 -70.1328c13.501 2.57812 35.9531 2.23535 42.5674 -13.335z" />
    <glyph glyph-name="parenright" unicode=")" horiz-adv-x="478" 
d="M407.7 508.91c18.0908 -107.128 24.4082 -215.329 16.7129 -323.762c-7.25098 -102.262 -27.9199 -208.099 -75.4736 -299.709c-24.499 -47.2021 -58.1123 -86.6387 -108.911 -106.196c-50.9619 -19.6191 -109.592 -22.7422 -162.473 -9.25391
c-14.0947 3.59277 -26.1777 16.1104 -24.8252 30.8984c1.42285 15.5527 18.0293 25.9795 31.9395 29.4629c38.0312 9.52637 80.1562 4.67285 107.01 31.7461c25.707 25.918 37.1533 68.666 48.2256 102.797c25.834 79.6553 36.0547 163.084 40.1875 246.442
c4.4707 90.1699 1.31738 181.381 -9.18848 271.042c-9.03906 77.1387 -18.1611 157.879 -45.8535 230.985c-16.9092 44.6416 -74.2617 166.554 -136.762 111.516c-11.2617 -9.91699 -50.0088 -0.90918 -34.7949 15.5127c76.5459 82.6289 204.071 15.6973 257.809 -59.0566
c56.917 -79.1719 80.3926 -177.639 96.3975 -272.425z" />
    <glyph glyph-name="asterisk" unicode="*" 
d="M241.062 579.777c27.376 -3.11816 13.4014 -30.7139 -9.09961 -28.373c-11.4854 1.19043 -22.9883 2.0166 -34.4912 2.56543c14.3398 -10.7646 28.6582 -21.5605 42.6865 -32.7432c8.41992 -6.71094 0.496094 -17.1865 -6.25488 -20.7002
c-9.49609 -4.94141 -21.4824 -3.37793 -29.5947 3.24512c-10.0889 8.23926 -20.3398 16.2676 -30.6309 24.2305c0.759766 -12.4648 1.66895 -24.9297 2.82422 -37.3896c1.93652 -20.8975 -43.3467 -24.1348 -45.1826 -3.1582
c-0.878906 10.0225 -1.69141 20.0713 -2.43848 30.1338c-7.85742 -9.86035 -15.5215 -19.8828 -22.834 -30.2002c-9.50488 -13.4092 -45.9111 -6.94824 -34.0967 11.0547c11.5518 17.6035 24.2842 35.5977 38.084 53.0654
c-11.292 -1.21191 -22.5664 -2.72266 -33.8018 -4.67676c-7.875 -1.37012 -21.7324 -1.49316 -25.4395 7.96777c-3.37793 8.61719 4.65527 16.5498 12.8643 18.0654c14.7793 2.72754 29.5762 4.94531 44.3906 6.63672c-13.5146 11.1514 -26.7568 22.6455 -39.3926 34.9043
c-15.9785 15.5039 21.3281 28.2363 33.7793 16.4521c7.61621 -7.20703 15.4785 -14.0938 23.4375 -20.8662c0.206055 9.13086 0.535156 18.2529 1.1543 27.3623c1.28711 18.9209 40.4561 22.5 41.4883 2.89844c0.443359 -8.37598 0.821289 -16.752 1.18555 -25.1279
c11.3271 9.86035 23.1064 18.9297 35.3691 26.8135c13.6201 8.7627 48.7041 0.620117 29.8359 -17.6514c-14.7793 -14.3135 -30.5469 -27.3408 -45.7393 -41.0879c17.2695 -0.381836 34.5654 -1.44434 51.8965 -3.4209z" />
    <glyph glyph-name="plus" unicode="+" horiz-adv-x="345" 
d="M277.156 282.181c9.29395 -0.28125 20.459 -8.27051 17.5869 -18.5654c-3.16699 -11.3408 -18.0303 -13.4971 -27.7676 -13.1807c-7.25586 0.232422 -14.5068 0.373047 -21.7627 0.469727c-0.0966797 -6.38574 -0.210938 -12.7676 -0.276367 -19.1582
c-0.413086 -39.7178 6.6709 -87.0469 -6.81738 -125.197c-10.0488 -28.4219 -54.2207 -33.8506 -77.1875 -19.708c-41.0527 25.2764 -43.0684 83.7617 -48.0449 127.095c-1.18555 10.3262 -2.10352 20.6826 -2.83691 31.0566
c-12.6318 -1.24316 -25.25 -2.61816 -37.8467 -4.22559c-28.4082 -3.62793 -29.998 27.9912 -2.20898 31.6016c12.8516 1.66895 25.7119 3.06152 38.5762 4.32227c-0.641602 27.582 0.416992 55.1865 3.59668 82.5586c3.86914 33.3096 32.6152 47.9395 64.0146 51.1152
c24.9072 2.5166 70.4355 -9.85156 70.5059 -41.708c0.0654297 -28.6455 -0.453125 -57.2773 -0.966797 -85.9141c10.4756 -0.0830078 20.9512 -0.245117 31.4355 -0.561523z" />
    <glyph glyph-name="comma" unicode="," horiz-adv-x="232" 
d="M141.177 64.6738c16.5186 -2.00293 49.5586 -18.2598 38.3672 -40.4971c-18.6445 -37.0566 -39.916 -76.959 -77.3545 -97.9092c-15.6494 -8.75781 -49.2275 -5.79297 -51.8633 16.4531c-1.9502 16.4531 5.26562 31.6104 10.9756 46.6006
c6 15.7637 12.79 31.0439 19.3037 46.6006c9.60547 22.9492 37.3945 31.5625 60.5713 28.752z" />
    <glyph glyph-name="hyphen" unicode="-" horiz-adv-x="403" 
d="M323.577 270.941c35.6289 -4.44531 41.1133 -45.2881 3.70605 -53.0225c-41.0312 -8.48145 -81.0391 -10.4932 -122.79 -11.7402c-40.9209 -1.2207 -83.2607 -4.83496 -124.016 -0.0166016c-37.0215 4.37891 -42.6738 47.2852 -3.84766 55.0547
c40.4385 8.08984 82.1904 8.6084 123.266 10.752c41.5977 2.16992 82.2246 4.14648 123.682 -1.02734z" />
    <glyph glyph-name="period" unicode="." horiz-adv-x="192" 
d="M132.987 52.2178c8.79297 -8.91113 9.23926 -18.6133 8.95801 -30.248c-0.188477 -7.73926 -1.48438 -15.5439 -2.33203 -23.2432c-1.30859 -11.9023 -5.79297 -19.2412 -16.0576 -25.6709c-10.0928 -6.32031 -21.042 -8.71875 -32.8789 -8.45117
c-11.7002 0.263672 -25.8564 3.11816 -33.9727 12.5479c-6.3418 7.36523 -7.5498 14.041 -6.21875 23.6514c2.60449 18.7764 3.33398 40.0869 19.5361 52.6045c16.8311 12.9961 47.167 14.8232 62.9658 -1.19043z" />
    <glyph glyph-name="slash" unicode="/" horiz-adv-x="630" 
d="M545.248 717.927c28.7598 -9.52637 43.6299 -34.0566 28.4375 -61.5205c-37.3193 -67.4893 -78.9219 -132.444 -115.895 -200.162c-35.7432 -65.4736 -69.2109 -132.198 -103.312 -198.532c-35.7432 -69.5312 -71.0381 -139.291 -107.497 -208.454
c-17.5859 -33.3584 -35.958 -66.251 -55.4062 -98.5635c-21.1924 -35.207 -43.5127 -70.335 -78.9482 -92.4893c-15.1924 -9.5 -64.6348 -7.36133 -62.5664 19.8477c2.65723 35.0049 23.9199 71.2666 38.5283 102.802c15.5264 33.5166 30.8281 67.1162 46.4688 100.58
c32.0312 68.5303 62.8818 137.605 94.3604 206.391c32.3564 70.7041 66.9619 140.258 103.491 208.906c36.4287 68.4551 73.7051 137.218 121.891 198.216c20.3662 25.7861 60.2998 32.9668 90.4473 22.9795z" />
    <glyph glyph-name="zero" unicode="0" horiz-adv-x="511" 
d="M322.85 14.1914c-61.5771 -30.3271 -137.76 -33.1572 -191.221 14.6602c-41.4004 37.0303 -58.6523 94.7559 -69.123 147.396c-11.6387 58.5254 -12.9785 119.321 -12.3945 178.812c0.62793 64.2783 2.09473 135.461 23.2471 196.709
c7.68652 22.25 31.8867 32.2461 54.1328 34.4111c15.3418 19.5322 39.2969 35.3135 58.7148 43.1055c59.2764 23.7881 115.553 21.3984 166.365 -19.5664c84.5615 -68.1699 108.6 -199.828 108.314 -302.582c-0.316406 -112.912 -27.7764 -238.637 -138.036 -292.945z
M241.81 77.291c12.5176 -6.29785 2.16211 0.464844 1.62598 0.329102c-0.720703 -0.18457 -1.24805 -0.285156 -1.62598 -0.329102zM186.329 224.65c3.99219 -40.9697 11.4629 -82.9414 31.5352 -119.409c4.25195 -7.71289 8.78418 -14.4414 15.1309 -20.5947
c0.689453 -0.667969 11.8018 -8.91211 6.39551 -6.12305c0.641602 -0.333984 1.16895 -0.597656 1.72266 -0.878906c0.544922 0.703125 3.26367 2.10449 2.89453 1.69141c3.11426 3.46973 0.99707 -0.100586 5.02441 1.47168
c4.20312 1.63867 8.27051 3.65039 12.2324 5.78906c65.0029 35.1367 80.832 136.301 86.4541 204.348c6.86914 83.1299 6.54004 173.95 -32.5146 249.851c-15.3896 29.915 -43.4688 68.6758 -81.166 66.6074c-16.084 -0.882812 -44.9141 -12.0078 -63.2998 -28.2588
c12.6357 -5.99121 22.874 -15.7686 23.4229 -30.1924c2.1123 -55.5342 -7.55469 -112.136 -10.0977 -167.674c-2.38086 -52.0293 -2.79395 -104.734 2.26562 -156.627z" />
    <glyph glyph-name="one" unicode="1" horiz-adv-x="341" 
d="M276.889 17.2002c-4.90137 -29.124 -48.8652 -39.4678 -72.4551 -38.9316c-26.9805 0.610352 -57.3691 12.5 -62.3545 42.0723c-10.124 60.0186 -4.01465 122.65 -0.926758 183.139c3.03027 59.4297 9.4248 119.325 17.8887 178.224
c8.05469 56.0391 16.127 113.009 14.0674 169.746c-0.487305 13.4482 3.20215 58.2344 -16.0928 59.0693c-22.4082 0.96582 -51.4619 -21.7588 -67.8359 -34.9707c-15.2891 -12.3418 -54.1504 2.02051 -33.0332 19.541c43.3945 36.0068 105.024 63.8701 159.825 36.4502
c61.9639 -31.0088 70.3877 -109.795 73.4092 -171.315c3.60547 -73.3613 0.104492 -146.986 -1.39746 -220.37c-1.50684 -73.7256 1.16797 -149.806 -11.0947 -222.653z" />
    <glyph glyph-name="two" unicode="2" horiz-adv-x="398" 
d="M337.514 42.3008c5.85449 -20.6387 -15.5254 -34.2725 -32.3691 -39.3721c-41.0576 -12.4385 -85.3086 -18.2891 -127.367 -26.8887c-49.6885 -10.1543 -122.088 3.11426 -127.473 64.9902c-3.42578 39.3975 22.8652 83.0371 38.457 117.827
c17.7832 39.6914 36.5811 78.8955 55.8584 117.876c38.8926 78.6318 80.2969 160.751 97.8477 247.175c3.83398 18.8857 8.62598 38.8213 4.97656 58.2217c-3.79492 20.1689 -17.0859 24.1045 -36.0332 24.0654c-40.5527 -0.0830078 -74.6182 -24.4766 -81.7422 -65.1299
c-3.36914 -19.2197 -47.1543 -17.1953 -43.5488 5.16895c11.2529 69.7334 89.5469 99.7275 152.719 90.627c28.7158 -4.13281 57.5498 -10.8789 77.5605 -33.5205c22.4746 -25.4307 31.1094 -65.2412 31.417 -98.3096
c0.685547 -73.8135 -23.8623 -143.898 -51.6641 -211.203c-27.8369 -67.3975 -60.8701 -132.493 -88.0791 -200.149c-4.13281 -10.2861 -7.90137 -20.5244 -11.3447 -30.9336c11.9902 0.645508 24.293 0.566406 35.5146 1.74805
c18.4248 1.94141 36.7754 3.84766 55.3232 3.6416c19.0576 -0.214844 43.8818 -4.45801 49.9473 -25.834zM171.805 59.4639c-1.38379 0.961914 -8.56055 -1.99805 0 0z" />
    <glyph glyph-name="three" unicode="3" horiz-adv-x="509" 
d="M342.312 7.375c-60.8877 -31.3242 -146.646 -45.5889 -209.708 -13.5176c-59.4824 30.2529 -80.8848 100.158 -82.5889 162.504c-1.26953 46.4463 91.5186 52.0723 98.7871 6.9082c6.19727 -38.5186 12.1885 -116.021 66.4355 -114.62
c42.0674 1.08887 84.5176 34.8115 102.007 73.4844c23.1855 51.2695 14.2432 104.713 -21.5 147.861c-15.9521 19.2598 -34.8428 36.6045 -57.9014 46.9482c-21.3584 9.58398 -39.9551 9.66309 -56.8467 6.29004c-26.041 -5.19629 -65.9658 -3.72949 -79.3613 24.8584
c-13.2471 28.2725 16.9707 49.0693 40.1299 56.3643c2.2002 0.694336 3.78613 1.18164 4.98535 1.54199c0.448242 0.193359 1.00586 0.425781 1.77051 0.737305c4.99805 2.0332 9.89941 4.2998 14.7178 6.72461c6.59668 3.31641 11.002 5.69238 16.4082 9.27148
c13.8438 9.1709 26.9766 20.1377 38.0889 32.4707c23.7393 26.3438 45.9414 59.333 54.5986 94.1055c4.66406 18.7324 2.78027 43.2402 -17.9502 51.1904c-19.9268 7.64258 -46.3193 -0.62793 -65.3896 -7.36523c-40.9434 -14.4629 -77.5605 -46.1123 -73.2432 -93.1738
c1.91895 -20.9062 -42.9512 -24.0908 -45.1826 -3.1582c-6.59277 61.8369 44.0303 105.003 97.0254 124.601c52.2578 19.3213 123.41 25.6504 162.479 -23.3213c36.292 -45.498 20.0498 -112.263 -6.41309 -158.121c-8.57812 -14.8545 -18.8555 -28.7119 -30.4062 -41.4844
c33.9072 -12.4736 65.3545 -31.8076 91.2588 -56.2148c46.7891 -44.0879 80.7842 -108.146 74.0068 -173.659c-7.37402 -71.2881 -53.3203 -128.878 -116.207 -161.226z" />
    <glyph glyph-name="four" unicode="4" horiz-adv-x="419" 
d="M359.491 -3.25391c-13.2295 -40.0078 -87.9316 -43.6709 -107.151 -7.48828c-13.3604 25.1621 -17.4717 54.7871 -20.7568 82.8047c-3.20215 27.3408 -6.54492 54.6689 -8.66602 82.1201c-2.41992 31.3291 -4.62012 62.6758 -6.71094 94.0312
c-31.8916 -9.9873 -65.7549 -13.2461 -98.252 -3.45605c-37.9482 11.4238 -67.042 39.4277 -67.8984 80.5508c-1.07617 51.6777 13.0928 107.269 25.457 157.084c6.32422 25.4834 13.2861 50.8125 20.7393 75.9883c7.65137 25.8516 14.0596 53.8516 26.0371 78.043
c7.83984 15.8291 45.4805 17.7266 41.7432 -4.9541c-6.74609 -40.9209 -23.1816 -81.667 -33.2881 -122.044c-10.5146 -42.002 -21.7236 -85.3613 -23.9199 -128.751c-1.66895 -32.9932 -7.10156 -77.5156 28.7158 -94.3555
c23.9023 -11.2393 52.2754 -1.48438 77.7188 7.96289c-0.329102 5.29688 -0.702148 10.5898 -1.01855 15.8867c-6.41211 107.571 -16.6455 217.773 2.61426 324.488c4.6377 25.6943 42.6562 34.4922 63.6201 34.1846c24.6709 -0.364258 49.1875 -11.2305 54.748 -36.9424
c22.2588 -102.947 17.7793 -211.253 22.2764 -316.066c2.29688 -53.5312 5.30078 -107.019 8.33984 -160.51c2.85938 -50.3203 11.7188 -109.991 -4.34766 -158.577z" />
    <glyph glyph-name="five" unicode="5" horiz-adv-x="513" 
d="M351.175 9.91797c-65.3809 -37.7588 -161.545 -41.9277 -218.361 13.4834c-26.3135 25.668 -42.0771 61.4639 -52.0781 96.2363c-11.1426 38.7471 -19.0703 82.3389 -8.96387 122.062c7.45801 29.3047 71.5781 30.5566 75.1221 -1.74707
c4.80957 -43.8066 3.39062 -84.6406 19.7422 -126.704c10.9453 -28.1582 28.417 -65.0654 61.165 -72.0137c61.8584 -13.124 100.856 67.2734 110.497 115.499c13.791 68.9824 -7.26465 150.382 -51.9541 204.436c-20.3574 24.6221 -45.7178 47.4873 -76.9277 56.7939
c-13.2207 3.94434 -26.4766 5.48145 -35.5459 4.20312c-25.8564 -3.64062 -47.9668 -12.3154 -74.9258 -8.05078c-20.3662 3.22363 -58.8232 20.9023 -46.5908 49.1836c14.7578 34.1221 31.2412 68.0156 50.9795 99.5684c16.6289 26.5811 34.5352 63.585 63.8916 77.8682
c29.7871 14.4941 62.5439 3.71582 93.4336 -0.381836c33.4463 -4.43652 69.0791 -1.17773 101.084 -12.668c13.7207 -4.92773 15.543 -19.5625 1.83105 -26.1855c-26.8398 -12.9609 -55.3008 -12.5439 -84.5039 -11.9951
c-15.6006 0.293945 -31.1797 0.926758 -46.7324 2.23145c-5.05957 0.421875 -10.0928 0.975586 -15.1221 1.58594c-1.55957 -7.25977 -2.75 -14.6602 -4.62109 -21.582c-3.46094 -12.7988 -6.90918 -25.6592 -10.6426 -38.3789
c-2.49023 -8.48145 -5.2002 -16.9053 -8.00684 -25.2988c24.7061 -0.636719 49.1787 -4.42676 72.835 -11.9111c44.4258 -14.0508 85.2549 -41.6113 116.272 -76.2217c104.484 -116.575 117.661 -323.654 -31.877 -410.012z" />
    <glyph glyph-name="six" unicode="6" horiz-adv-x="405" 
d="M106.672 25.7695c-33.6572 29.3652 -47.6055 74.4121 -53.7285 117.376c-13.1416 92.2744 20.001 191.286 54.251 275.566c17.9941 44.2861 41.1582 88.5811 68.5742 127.789c26.3174 37.6357 54.2158 71.6523 97.5352 89.7041
c15.3154 6.38184 53.8301 1.22949 39.4727 -23.3486c-35.2773 -60.3916 -55.1738 -131.987 -78.7812 -197.526c-18.7979 -52.1963 -37.0078 -106.957 -46.2178 -162.289c69.0225 7.44043 144.721 -29.5322 163.585 -99.5957
c19.7598 -73.3838 -39.1562 -151.115 -111.455 -164.45c-47.7031 -8.79785 -96.7412 4.93164 -133.235 36.7744zM255.412 208.175c-22.5713 11.2178 -48.6777 7.73047 -72.9355 1.03223c-2.22656 -29.6465 -2.01562 -60.6943 2.54297 -89.748
c3.55371 -22.6719 13.752 -52.2529 32.4668 -67.0635c17.2656 -13.6592 46.4951 -0.158203 60.8486 12.0566c21.7539 18.5127 33.2881 47.7559 28.6191 76.2295c-4.67773 28.5176 -25.9443 54.7695 -51.542 67.4932z" />
    <glyph glyph-name="seven" unicode="7" horiz-adv-x="418" 
d="M338.903 298.726c-15.1572 -1.62109 -30.2393 -1.8916 -45.3301 -1.6416c-5.23145 -23.2822 -10.7432 -46.5254 -16.2949 -69.7861c-8.73145 -36.582 -17.4541 -73.1768 -25.1445 -110c-7.69043 -36.8281 -12.0742 -74.7539 -23.5596 -110.615
c-8.99512 -28.0879 -44.3564 -38.4707 -70.4941 -37.8779c-22.1279 0.500977 -60.8047 12.1396 -60.6641 40.9346c0.320312 66.501 25.7861 134.249 44.9443 197.285c9.4873 31.2236 18.9482 62.4297 28.2334 93.6885c-11.4375 0.373047 -22.8701 0.838867 -34.2676 1.64746
c-11.459 0.8125 -25.457 9.13574 -23.9941 22.0527c1.54199 13.6025 17.4814 19.7432 29.3311 20.8057c14.165 1.26953 28.3994 1.91992 42.6514 2.22754c4.49316 15.5 8.9248 31.0176 13.2773 46.5703c9.0957 32.4795 17.4277 65.293 25.5352 98.0322
c6.42969 25.9746 18.6533 57.5146 14.5947 84.6406c-4.75195 31.7598 -46.0293 30.8984 -71.5781 31.3418c-31.4434 0.544922 -63.0361 -1.22949 -94.3867 -3.44336c-27.6309 -1.9541 -29.5938 28.5449 -2.15137 30.75c67.2832 5.41113 140.14 12.75 202.947 -17.2441
c61.5381 -29.3916 53.2285 -118.895 46.8379 -175.676c-3.68066 -32.6953 -9.16602 -64.9902 -15.5693 -97.1094c15.873 -1.15527 31.6846 -3.07422 47.6455 -6.56152c9.76758 -2.13477 18.6436 -12.4521 15.5732 -22.6328
c-3.46582 -11.5029 -17.6133 -16.2598 -28.1367 -17.3887z" />
    <glyph glyph-name="eight" unicode="8" horiz-adv-x="474" 
d="M421.759 106.571c-17.4717 -114.38 -165.385 -158.742 -251.681 -91.2744c-41.0664 32.1016 -60.0537 81.1787 -56.1445 132.571c3.51367 46.1963 13.3076 90.9521 33.085 132.242c-37.5918 26.1768 -73.3174 58.4014 -88.2246 102.146
c-18.8242 55.248 -6.00391 110.369 24.9121 158.555c30.3975 47.3779 80.4414 87.8818 135.642 101.374c55.3008 13.5146 113.316 -2.21387 144.746 -51.0889c28.4736 -44.2725 33.0635 -104.312 33.0332 -155.472c-0.0390625 -59.4873 -5.66113 -124.903 -22.3691 -182.559
c35.0713 -40.4736 55.2314 -92.5947 47.001 -146.495zM181.392 481.797c-6.47363 -48.0586 21.7959 -85.3311 53.8184 -115.685c21.9385 -20.7969 46.9912 -37.5879 71.5605 -54.998c2.34961 14.5908 4.76074 29.1768 6.52637 43.8418
c4.31738 35.9014 6.38574 72.2988 4.22461 108.429c-1.64746 27.5215 -11.2178 141.479 -63.124 122.501c-38.2988 -14.0068 -67.8447 -65.7676 -73.0059 -104.089zM287.489 44.9209c46.5166 23.792 39.2178 84.2373 13.5322 121.017
c-28.7598 41.1846 -76.208 65.3057 -118.372 91.0264c-6.93555 -18.6885 -12.1582 -38.1064 -15.2988 -57.4365c-5.40625 -33.2793 3.65918 -65.2666 18.5752 -94.9795c16.9492 -33.7666 59.4258 -81.1836 101.563 -59.627z" />
    <glyph glyph-name="nine" unicode="9" horiz-adv-x="534" 
d="M171.103 306.72c-66.04 -13.6025 -128.03 31.5029 -120.472 100.626c5.83691 53.2988 32.2598 102.188 68.9648 140.565c37.7109 39.4277 89.6738 72.3418 145.226 77.0498c38.0488 3.22363 86.9111 -19.3916 96.6748 -59.0967
c42.7568 -6.76367 82.6416 -52.9512 97.0215 -88.9268c21.0869 -52.7578 24.4385 -113.962 25.0537 -170.137c0.615234 -56.2852 -7.48828 -114.941 -22.5713 -169.18c-14.6348 -52.6309 -40.8252 -110.87 -84.3857 -145.818
c-51.9238 -41.6553 -133.946 -46.1611 -189.563 -8.79297c-44.04 29.5898 -71.2451 82.8096 -74.7148 135.326c-2.41602 36.5645 65.7979 46.6006 84.6094 22.0176c18.1924 -23.7793 31.8516 -51.1377 54.5938 -71.2227c6.87402 -6.07422 16.0137 -11.1953 21.499 -13.5322
c1.69531 1.55078 3.50879 3.20215 4.62402 4.2207c-0.667969 -0.118164 9.44727 12.7021 8.30078 11.0898c7.28613 10.2422 13.5664 21.1826 18.8457 32.5801c12.9785 28.0176 23.0322 57.6465 30.7227 87.5264c13.7646 53.4648 21.6484 109.631 24.8369 164.717
c1.7041 29.3828 3.21973 59.8594 0.0175781 89.1631c-1.47559 13.4795 -3.83008 27.5605 -7.7041 40.5615c-0.469727 1.57715 -3.04395 6.60645 -5.98242 12.2725c-1.08887 -1.65137 -2.19141 -3.29883 -3.26758 -4.95508
c-6.3291 -9.72461 -12.5918 -19.5801 -18.3496 -29.6602c-11.376 -19.9092 -21.4072 -40.5303 -33.6309 -59.9697c-28.1406 -44.7559 -66.7959 -85.3965 -120.349 -96.4248zM180.516 373.255c0.140625 -0.18457 0.241211 -0.228516 0.271484 -0.0527344
c-0.0830078 0.0478516 -0.183594 0.0263672 -0.271484 0.0527344zM174.191 408.058c-0.527344 -7.24707 -0.197266 -16.7354 1.73535 -23.7891c-0.0439453 0.158203 -0.0175781 0.119141 0.0439453 -0.0302734c7.3877 5.29688 14.292 11.7354 20.6035 17.9287
c16.207 15.9082 29.8184 34.5225 42.9902 52.9521c15.0479 21.0605 28.4785 43.1484 43.3066 64.3447c10.6592 15.2363 22.0088 30.4463 38.0088 39.3887c-13.7822 51.8799 -89.2695 -28.6406 -104.168 -48.8271c-14.4277 -19.5449 -25.5176 -41.4795 -33.3799 -64.4551
c-4.05859 -11.8672 -8.23145 -24.9688 -9.14062 -37.5127z" />
    <glyph glyph-name="colon" unicode=":" horiz-adv-x="204" 
d="M93.4287 447.293c-18.0557 1.61621 -40.2041 15.5391 -34.3936 36.3047c4.5498 16.2773 5.7666 35.3701 12.7725 50.6719c6.49609 14.2002 20.5205 20.4062 35.4668 21.917c12.7148 1.28711 32.6064 -3.58789 38.1709 -16.7646
c8.69238 -20.5811 4.94141 -44.9092 2.28809 -66.3516c-1.1377 -9.18848 -12.1621 -16.1895 -19.5498 -20.1729c-10.4141 -5.61719 -23.1602 -6.64062 -34.7549 -5.60449zM151.709 131.772c4.62891 -21.8682 0.0703125 -44.5146 -4.89746 -66.001
c-5.39746 -23.3438 -39.5068 -29.5977 -58.7266 -27.876c-19.958 1.7832 -42.9023 16.7119 -37.1973 39.2656c4.77441 18.8643 7.29102 38.2246 13.6729 56.6406c11.8809 34.2764 79.291 35.0801 87.1484 -2.0293z" />
    <glyph glyph-name="semicolon" unicode=";" horiz-adv-x="316" 
d="M251.72 462.169c-13.2334 -42.6953 -108.978 -39.293 -99.5342 11.8184c4.2959 23.2607 9.93945 46.3018 12.6143 69.8438c2.8457 25.0742 24.5996 36.0898 48.1807 38.4707c17.3887 1.75684 54.8838 -7.51074 53.0703 -31.3906
c-2.26172 -29.7695 -5.46777 -60.1455 -14.3311 -88.7422zM174.506 158.443c8.13379 30.1475 81.1191 34.0449 81.2158 -1.88672c0.135742 -51.4932 -10.9277 -100.86 -31.334 -148.128c-21.2451 -49.2139 -47.9443 -99.165 -86.3223 -136.894
c-21.6396 -21.2715 -100.201 -15.6982 -86.4629 27.8975c14.3047 45.4053 46.6084 85.8125 69.083 127.607c22.3818 41.6201 41.4873 85.6904 53.8203 131.403z" />
    <glyph glyph-name="less" unicode="&#x3c;" horiz-adv-x="411" 
d="M341.856 189.138c18.7236 -9.13965 24.7812 -32.7432 12.8613 -49.4072c-14.4102 -20.1514 -43.3545 -25.5752 -66.2812 -23.7129c-26.6816 2.16992 -53.0039 12.7285 -78.2891 21.0996c-22.1543 7.33887 -44.0801 15.3105 -65.7334 24.0244
c-34.3594 13.8262 -105.139 34.1885 -93.0381 84.6807c5.4375 22.6807 25.7861 39.5508 42.1904 54.8086c16.752 15.5742 34.667 29.998 52.5117 44.29c38.4307 30.7754 78.6445 68.3193 125.21 86.002c14.6914 5.57812 30.002 7.51953 44.7461 0.953125
c9.5752 -4.26074 21.7676 -16.0449 16.4268 -28.1143c-15.5742 -35.1855 -48.4756 -60.9453 -76.3477 -86.2881c-25.7559 -23.4141 -53.7559 -45.3262 -77.5303 -70.7783c-0.105469 -0.109375 -0.197266 -0.227539 -0.297852 -0.336914
c16.0137 -7.12402 32.6641 -13.1943 49.0996 -19.1807c37.4385 -13.6416 78.8252 -20.6338 114.472 -38.04z" />
    <glyph glyph-name="equal" unicode="=" horiz-adv-x="400" 
d="M325.544 428.231c14.3662 -4.375 27.7803 -17.6904 23.1816 -33.6738c-4.97656 -17.2695 -26.3877 -23.9893 -41.874 -25.8779c-36.5117 -4.44922 -74.1172 0.895508 -110.747 2.40234c-34.54 1.42285 -70.0635 -0.601562 -104.155 5.55176
c-12.75 2.30566 -29.5586 8.80176 -30.626 24.0859c-1.04102 14.8672 14.5771 24.749 26.9717 28.1133c37.5703 10.1855 77.5645 10.0762 116.246 10.0674c40.3857 -0.0175781 82.0186 1.20312 121.003 -10.6689zM323.766 303.176
c36.042 -11.6523 13.5127 -46.7988 -15.1191 -48.165c-39.1992 -1.8623 -77.1689 3.49609 -116.18 6.49121c-36.6787 2.81543 -73.3174 1.34863 -110.031 0.592773c-34.0078 -0.698242 -46.459 31.0879 -11.7881 43.7021c41.0049 14.916 84.8643 16.1982 128.03 15.0654
c42.582 -1.11523 84.3994 -4.53223 125.088 -17.6865z" />
    <glyph glyph-name="greater" unicode="&#x3e;" horiz-adv-x="418" 
d="M360.995 297.298c28.7812 -52.3809 -44.7383 -88.4531 -80.1123 -111.433c-43.7627 -28.4434 -88.1631 -61.5684 -135.229 -84.2188c-24.7939 -11.9336 -58.9072 -11.8945 -81.1836 5.4541c-20.041 15.6143 -18.8242 41.2295 0.926758 56.8125
c34.3418 27.1035 75.9971 48.3486 113.721 70.625c17.2432 10.1855 34.5615 20.2607 51.792 30.4727c1.32617 0.786133 8.73145 5.42383 14.4238 9.22754c-0.970703 1.17285 -1.9502 2.34082 -2.94238 3.5c-19.5977 24.0996 -47.4434 39.5381 -73.7607 55.0947
c-33.6836 19.9141 -65.3506 42.2568 -96.7412 65.6143c-15.2314 11.332 -19.1582 28.3516 -2.90723 41.585c16.7646 13.6465 41.6807 13.5371 60.2686 4.21289c44.1758 -22.1582 89.3623 -42.2217 133.292 -64.8848c37.043 -19.1104 77.7402 -44.3604 98.4531 -82.0625z" />
    <glyph glyph-name="question" unicode="?" horiz-adv-x="532" 
d="M443.62 620.461c55.3096 -87.627 41.6875 -212.502 12.3047 -306.572c-16.0049 -51.2471 -39.8672 -99.7275 -56.6055 -150.746c-16.7471 -51.0537 -24.6885 -100.725 -19.6201 -154.405c2.93848 -31.1006 -36.7666 -47.2852 -61.3799 -49.0068
c-29.1553 -2.03809 -60.4707 9.52637 -67.5986 39.9854c-23.2295 99.2705 27.7012 198.282 64.4893 287.481c32.6113 79.0664 60.3955 165.257 53.8076 252.027c-2.6875 35.4316 -13.7158 72.9004 -41.5664 96.877c-25.2988 21.7852 -58.8242 24.4814 -89.5381 13.4131
c-69.7998 -25.1582 -120.287 -104.085 -116.976 -177.469c3.11426 -69.0312 60.6777 -150.004 137.799 -129.765c23.9678 6.28906 42.8672 -20.9287 14.1123 -29.2207c-104.87 -30.2354 -209.705 38.875 -221.713 147.299c-10.2334 92.3789 49.877 183.959 130.394 225.372
c91.501 47.0615 206.351 23.0283 262.091 -65.2705zM368.337 -75.5029c1.875 -22.9404 3.00879 -45.9844 5.53418 -68.876c2.52148 -22.7998 -26.9365 -33.666 -44.373 -35.4277c-17.9199 -1.80957 -47.9316 6.83398 -48.8711 28.9092
c-1.12012 26.2959 -0.0175781 51.4014 4.66895 77.3281c3.24609 17.9414 29.9326 24.3145 44.6328 23.9805c15.3193 -0.342773 36.915 -7.63379 38.4082 -25.9141z" />
    <glyph glyph-name="at" unicode="@" horiz-adv-x="815" 
d="M764.364 402.651c4.15039 -85.541 -10.1875 -175.709 -52.1104 -251.091c-18.71 -33.6309 -47.5527 -64.5996 -86.1064 -73.4854c-50.7373 -11.6963 -112.486 8.95117 -141.646 52.6172c-24.7188 37.0078 -31.7598 80.3799 -33.1914 123.893
c-11.5469 -25.1143 -24.7627 -49.4336 -40.4121 -72.4658c-18.0557 -26.5811 -42.8496 -55.1074 -73.6387 -66.8779c-37.3018 -14.2607 -80.7402 -4.74316 -110.045 22.1016c-59.5303 54.5371 -47.7812 164.143 -27.2354 233.551
c21.3496 72.1143 73.8086 141.554 151.997 154.488c33.5605 5.55566 69.8662 8.74414 98.8936 -12.7109c21.6885 -16.0312 33.0859 -37.9521 41.1367 -62.1084c25.5801 12.6621 66.6943 9.89551 74.6748 -14.9814c14.9248 -46.5215 18.873 -96.4688 20.9414 -145.151
c1.00098 -23.5332 3.26758 -46.8555 7.27344 -70.0674c3.35156 -19.4443 4.89355 -38.9541 13.0713 -57.1201c4.93652 -10.9629 7.21191 -31.2236 20.3711 -36.8057c-3.87793 2.18262 8.63965 4.25586 12.8691 7.18066c7.46191 5.16113 13.418 13.374 18.7979 20.6123
c25.7861 34.6846 39.0107 77.1348 47.1406 119.137c25.6543 132.527 5.82812 328.907 -154.436 363.648c-135.962 29.4756 -275.745 -61.5557 -350.139 -169.426c-74.3633 -107.826 -107.945 -272.939 -25.4082 -386.01c38.1768 -52.3018 98.1777 -87.2939 161.051 -100.619
c77.6309 -16.4482 157.066 -1.00586 232.189 20.0283c12.9482 3.62305 32.1504 1.53711 40.3066 -10.5811c7.62012 -11.3184 0.223633 -24.8105 -11.6436 -29.7119c-99.9912 -41.2773 -213.392 -54.6211 -318.302 -23.6123
c-89.6035 26.4805 -171.144 88.0186 -206.834 176.199c-63.9141 157.919 7.73438 338.971 125.76 450.451c121.39 114.656 320.238 173.036 462.328 61.5771c68.543 -53.7686 98.2246 -137.816 102.345 -222.659zM389.952 223.842
c35.1416 58.1387 56.8125 123.295 76.8145 187.903c-7.50586 1.00977 -13.8828 4.2998 -15.7139 10.3564c-5.0332 16.6416 -10.8574 34.0166 -22.2422 47.5576c-4.69531 5.58203 -10.8623 12.2051 -18.4785 13.4346c-3.6543 0.588867 -13.9102 -3.97852 -10.1113 -0.895508
c-16.624 -13.4795 -28.6543 -38.1982 -37.0957 -55.9688c-28.7773 -60.5625 -44.752 -124.459 -46.9434 -191.391c-0.504883 -15.4248 0.342773 -31.0479 2.08203 -46.3936c0.826172 -7.26465 5.05566 -27.2266 9.07422 -29.4092
c19.8438 -10.7822 55.0068 52.2227 62.6143 64.8057z" />
    <glyph glyph-name="A" unicode="A" horiz-adv-x="609" 
d="M91.6963 12.9141c-2.60059 -16.3477 -43.6436 -16.377 -41.623 0.967773c15.8955 136.187 35.998 271.731 65.0078 405.81c23.4668 108.468 47.4961 224.688 107.984 319.535c25.6982 40.2891 64.665 75.3379 114.722 77.7363
c54.8623 2.62695 97.6367 -36.9727 121.411 -82.6064c27.2705 -52.3369 42.6953 -112.873 54.7822 -170.34c12.2715 -58.3447 20.5107 -117.106 26.0801 -176.448c5.4502 -58.0508 9.2666 -116.163 11.5859 -174.416c2.40723 -60.4141 10.0713 -122.817 5.7666 -183.117
c-5.03809 -70.5859 -138.532 -81.1094 -151.774 -10.6162c-11.125 59.21 -7.27344 122.799 -8.55566 182.918c-1.19043 55.7803 -1.24707 111.582 -2.88086 167.349c-81.3154 -1.83105 -162.609 -5.53809 -243.74 -11.3926
c-1.30469 -6.58398 -2.5957 -13.1592 -3.88672 -19.7207c-21.2227 -107.993 -37.6094 -216.979 -54.8789 -325.658zM227.563 646.145c-32.9717 -82.4619 -53.4307 -170.888 -71.1836 -258.361c78.7812 6.54004 157.655 10.8887 236.7 12.6846
c-4.27344 99.666 -15.4248 197.637 -29.2598 296.49c-4.01465 28.6982 -16.9102 102.596 -59.7021 70.6953c-37.583 -28.0176 -59.6885 -79.3223 -76.5547 -121.509z" />
    <glyph glyph-name="A" unicode="&#xc5;" horiz-adv-x="609" 
d="M91.6963 12.9141c-2.60059 -16.3477 -43.6436 -16.377 -41.623 0.967773c15.8955 136.187 35.998 271.731 65.0078 405.81c23.4668 108.468 47.4961 224.688 107.984 319.535c25.6982 40.2891 64.665 75.3379 114.722 77.7363
c54.8623 2.62695 97.6367 -36.9727 121.411 -82.6064c27.2705 -52.3369 42.6953 -112.873 54.7822 -170.34c12.2715 -58.3447 20.5107 -117.106 26.0801 -176.448c5.4502 -58.0508 9.2666 -116.163 11.5859 -174.416c2.40723 -60.4141 10.0713 -122.817 5.7666 -183.117
c-5.03809 -70.5859 -138.532 -81.1094 -151.774 -10.6162c-11.125 59.21 -7.27344 122.799 -8.55566 182.918c-1.19043 55.7803 -1.24707 111.582 -2.88086 167.349c-81.3154 -1.83105 -162.609 -5.53809 -243.74 -11.3926
c-1.30469 -6.58398 -2.5957 -13.1592 -3.88672 -19.7207c-21.2227 -107.993 -37.6094 -216.979 -54.8789 -325.658zM227.563 646.145c-32.9717 -82.4619 -53.4307 -170.888 -71.1836 -258.361c78.7812 6.54004 157.655 10.8887 236.7 12.6846
c-4.27344 99.666 -15.4248 197.637 -29.2598 296.49c-4.01465 28.6982 -16.9102 102.596 -59.7021 70.6953c-37.583 -28.0176 -59.6885 -79.3223 -76.5547 -121.509z" />
    <glyph glyph-name="A" unicode="&#xc4;" horiz-adv-x="609" 
d="M91.6963 12.9141c-2.60059 -16.3477 -43.6436 -16.377 -41.623 0.967773c15.8955 136.187 35.998 271.731 65.0078 405.81c23.4668 108.468 47.4961 224.688 107.984 319.535c25.6982 40.2891 64.665 75.3379 114.722 77.7363
c54.8623 2.62695 97.6367 -36.9727 121.411 -82.6064c27.2705 -52.3369 42.6953 -112.873 54.7822 -170.34c12.2715 -58.3447 20.5107 -117.106 26.0801 -176.448c5.4502 -58.0508 9.2666 -116.163 11.5859 -174.416c2.40723 -60.4141 10.0713 -122.817 5.7666 -183.117
c-5.03809 -70.5859 -138.532 -81.1094 -151.774 -10.6162c-11.125 59.21 -7.27344 122.799 -8.55566 182.918c-1.19043 55.7803 -1.24707 111.582 -2.88086 167.349c-81.3154 -1.83105 -162.609 -5.53809 -243.74 -11.3926
c-1.30469 -6.58398 -2.5957 -13.1592 -3.88672 -19.7207c-21.2227 -107.993 -37.6094 -216.979 -54.8789 -325.658zM227.563 646.145c-32.9717 -82.4619 -53.4307 -170.888 -71.1836 -258.361c78.7812 6.54004 157.655 10.8887 236.7 12.6846
c-4.27344 99.666 -15.4248 197.637 -29.2598 296.49c-4.01465 28.6982 -16.9102 102.596 -59.7021 70.6953c-37.583 -28.0176 -59.6885 -79.3223 -76.5547 -121.509z" />
    <glyph glyph-name="A" unicode="&#xc3;" horiz-adv-x="609" 
d="M91.6963 12.9141c-2.60059 -16.3477 -43.6436 -16.377 -41.623 0.967773c15.8955 136.187 35.998 271.731 65.0078 405.81c23.4668 108.468 47.4961 224.688 107.984 319.535c25.6982 40.2891 64.665 75.3379 114.722 77.7363
c54.8623 2.62695 97.6367 -36.9727 121.411 -82.6064c27.2705 -52.3369 42.6953 -112.873 54.7822 -170.34c12.2715 -58.3447 20.5107 -117.106 26.0801 -176.448c5.4502 -58.0508 9.2666 -116.163 11.5859 -174.416c2.40723 -60.4141 10.0713 -122.817 5.7666 -183.117
c-5.03809 -70.5859 -138.532 -81.1094 -151.774 -10.6162c-11.125 59.21 -7.27344 122.799 -8.55566 182.918c-1.19043 55.7803 -1.24707 111.582 -2.88086 167.349c-81.3154 -1.83105 -162.609 -5.53809 -243.74 -11.3926
c-1.30469 -6.58398 -2.5957 -13.1592 -3.88672 -19.7207c-21.2227 -107.993 -37.6094 -216.979 -54.8789 -325.658zM227.563 646.145c-32.9717 -82.4619 -53.4307 -170.888 -71.1836 -258.361c78.7812 6.54004 157.655 10.8887 236.7 12.6846
c-4.27344 99.666 -15.4248 197.637 -29.2598 296.49c-4.01465 28.6982 -16.9102 102.596 -59.7021 70.6953c-37.583 -28.0176 -59.6885 -79.3223 -76.5547 -121.509z" />
    <glyph glyph-name="A" unicode="&#xc2;" horiz-adv-x="609" 
d="M91.6963 12.9141c-2.60059 -16.3477 -43.6436 -16.377 -41.623 0.967773c15.8955 136.187 35.998 271.731 65.0078 405.81c23.4668 108.468 47.4961 224.688 107.984 319.535c25.6982 40.2891 64.665 75.3379 114.722 77.7363
c54.8623 2.62695 97.6367 -36.9727 121.411 -82.6064c27.2705 -52.3369 42.6953 -112.873 54.7822 -170.34c12.2715 -58.3447 20.5107 -117.106 26.0801 -176.448c5.4502 -58.0508 9.2666 -116.163 11.5859 -174.416c2.40723 -60.4141 10.0713 -122.817 5.7666 -183.117
c-5.03809 -70.5859 -138.532 -81.1094 -151.774 -10.6162c-11.125 59.21 -7.27344 122.799 -8.55566 182.918c-1.19043 55.7803 -1.24707 111.582 -2.88086 167.349c-81.3154 -1.83105 -162.609 -5.53809 -243.74 -11.3926
c-1.30469 -6.58398 -2.5957 -13.1592 -3.88672 -19.7207c-21.2227 -107.993 -37.6094 -216.979 -54.8789 -325.658zM227.563 646.145c-32.9717 -82.4619 -53.4307 -170.888 -71.1836 -258.361c78.7812 6.54004 157.655 10.8887 236.7 12.6846
c-4.27344 99.666 -15.4248 197.637 -29.2598 296.49c-4.01465 28.6982 -16.9102 102.596 -59.7021 70.6953c-37.583 -28.0176 -59.6885 -79.3223 -76.5547 -121.509z" />
    <glyph glyph-name="A" unicode="&#xc1;" horiz-adv-x="609" 
d="M91.6963 12.9141c-2.60059 -16.3477 -43.6436 -16.377 -41.623 0.967773c15.8955 136.187 35.998 271.731 65.0078 405.81c23.4668 108.468 47.4961 224.688 107.984 319.535c25.6982 40.2891 64.665 75.3379 114.722 77.7363
c54.8623 2.62695 97.6367 -36.9727 121.411 -82.6064c27.2705 -52.3369 42.6953 -112.873 54.7822 -170.34c12.2715 -58.3447 20.5107 -117.106 26.0801 -176.448c5.4502 -58.0508 9.2666 -116.163 11.5859 -174.416c2.40723 -60.4141 10.0713 -122.817 5.7666 -183.117
c-5.03809 -70.5859 -138.532 -81.1094 -151.774 -10.6162c-11.125 59.21 -7.27344 122.799 -8.55566 182.918c-1.19043 55.7803 -1.24707 111.582 -2.88086 167.349c-81.3154 -1.83105 -162.609 -5.53809 -243.74 -11.3926
c-1.30469 -6.58398 -2.5957 -13.1592 -3.88672 -19.7207c-21.2227 -107.993 -37.6094 -216.979 -54.8789 -325.658zM227.563 646.145c-32.9717 -82.4619 -53.4307 -170.888 -71.1836 -258.361c78.7812 6.54004 157.655 10.8887 236.7 12.6846
c-4.27344 99.666 -15.4248 197.637 -29.2598 296.49c-4.01465 28.6982 -16.9102 102.596 -59.7021 70.6953c-37.583 -28.0176 -59.6885 -79.3223 -76.5547 -121.509z" />
    <glyph glyph-name="B" unicode="B" horiz-adv-x="635" 
d="M75.2246 198.394c-7.20312 63.5801 -12.6201 127.068 -16.4453 190.938c-7.83594 130.595 -16.4316 265.626 3.29785 395.47c4.34375 28.5928 48.3398 38.7471 71.1484 38.2285c23.959 -0.540039 59.3994 -12.1699 61.2266 -41.3115
c2.78906 -44.5186 2.45508 -89.0811 2.12109 -133.647c2.83691 5.38477 5.74902 10.7383 8.81445 16.0352c29.875 51.5811 72.0215 103.097 128.003 127.35c42.2695 18.3154 127.521 28.624 135.343 -35.6279c6.77246 -55.6348 -60.1367 -107.976 -99.8984 -136.015
c-23.6387 -16.6729 -48.7744 -30.4111 -74.3057 -43.4072c79.5234 -9.34668 153.755 -49.9961 205.033 -115.685c61.0811 -78.2412 93.4639 -185.519 83.8711 -284.434c-5.14746 -53.0391 -20.1465 -107.638 -54.708 -149.473
c-41.3779 -50.0879 -103.008 -77.8242 -168.45 -70.5293c-48.4141 5.39746 -101.616 38.8965 -107.295 90.5391c-2.60449 23.6826 -7.3916 44.5498 -4.4707 69.0713c3.10059 26.0273 9.93945 49.6221 19.0049 74.1299c28.4873 77.0244 72.1318 146.877 129.453 204.984
c-41.1582 75.1797 -109.745 133.656 -199.792 131.184c0.724609 -43.7803 1.83984 -87.5654 3.36426 -131.311c2.27539 -65.3457 4.76562 -130.639 6.64062 -195.998c1.80957 -63.0488 8.90332 -131.395 -13.5928 -191.492
c-10.4053 -27.7979 -60.6992 -30.7402 -75.0566 -5.24805c-32.8535 58.3271 -35.9014 130.911 -43.3066 196.248zM418.071 91.4941c31.6807 61.0332 29.6455 130.45 17.2285 196.227c-4.59375 24.3672 -11.9502 49.0117 -21.8145 72.7734
c-28.0742 -31.8516 -52.2129 -67.2041 -70.6777 -105.385c-28.4346 -58.8018 -49.5693 -124.877 -18.0908 -185.963c10.3389 -8.49902 20.1553 -17.9248 31.0654 -25.167c4.30469 -2.85938 6.68555 -4.01465 11.3105 -5.82812
c-3.6543 1.43652 5.41504 0.0615234 3.92188 -0.803711c6.77734 1.75293 13.4268 8.14355 22.0527 16.9365c8.5166 8.6748 18.3809 24.4512 25.0039 37.21zM377.842 772.417c-60.0977 -11.9727 -104.665 -71.2676 -133.908 -120.807
c-13.835 -23.4365 -25.2324 -48.3789 -34.3105 -74.1826c50.3467 17.6084 99.0029 43.1973 140.891 75.6377c23.6035 18.2803 48.2656 40.0039 63.4883 66.0664c7.37402 12.6318 13.0137 29.1416 5.71875 43.1436c-8.01172 15.3682 -27.3984 13.0273 -41.8789 10.1416z" />
    <glyph glyph-name="C" unicode="C" horiz-adv-x="550" 
d="M173.241 24.1182c-51.5332 29.8184 -80.8584 81.6123 -96.8105 137.326c-33.7451 117.885 -32.7529 244.856 -10.6826 364.945c10.6729 58.0547 33.5029 112.337 64.0195 162.688c30.4287 50.2061 72.9004 97.8164 129.599 117.673
c50.4873 17.6826 112.701 10.8223 147.53 -33.4639c35.6377 -45.3135 32.0537 -102.798 27.5518 -157.119c-1.84473 -22.2461 -48.6035 -26.4189 -48.8799 -3.41699c-0.557617 46.5303 -1.51953 106.518 -42.4014 137.979
c-33.7314 25.957 -61.793 -20.9023 -73.8887 -47.9795c-34.5137 -77.2617 -54.792 -164.498 -63.1016 -248.594c-9.41211 -95.2607 -12.5215 -195.568 6.20605 -289.929c6.77246 -34.127 18.4688 -77.5654 48.2383 -99.3857
c28.8037 -21.1084 63.6328 2.25293 87.3105 20.2207c70.9814 53.8652 97.7949 158.274 109.808 242.647c2.66602 18.6973 45.0986 16.8174 42.3447 -5.0293c-8.06836 -64.0234 -26.0938 -126.633 -55.3936 -184.244c-26.0977 -51.3135 -53.1484 -98.9375 -108.647 -122.325
c-52.6348 -22.1807 -113.026 -20.7969 -162.802 8.00684z" />
    <glyph glyph-name="D" unicode="D" horiz-adv-x="674" 
d="M64.5098 188.243c-6.75488 65.0732 -11.2812 130.047 -13.2402 195.454c-1.99414 66.4795 -1.95898 132.968 2.39844 199.351c4.26953 65.0732 6.82617 135.36 27.6885 197.553c9.10059 27.1387 42.3711 36.8408 67.8721 36.4678
c21.2803 -0.311523 58.5869 -11.8057 58.4111 -39.4102c-0.144531 -22.7119 -1.85742 -45.4541 -4.15918 -68.21c12.7236 17.7002 26.9189 34.1484 42.498 48.7568c58.0596 54.4531 134.469 54.2949 203.122 19.5889c68.0557 -34.4033 107.176 -104.022 134.082 -172.312
c29.2119 -74.1475 41.9229 -156.245 40.6533 -235.672c-2.39355 -149.617 -50.4346 -339.817 -214.273 -383.809c-71.1875 -19.1143 -160.005 -4.7832 -198.045 64.9639c-10.3916 19.0527 -17.208 39.748 -21.0068 61.1504
c-0.109375 -5.88086 -0.206055 -11.7617 -0.447266 -17.6514c-1.24316 -30.5957 -0.46582 -68.4648 -17.6562 -94.7432c-11.6826 -17.8584 -47.2236 -19.835 -61.3574 -4.29102c-21.917 24.0947 -27.2227 64.252 -33.0732 95.4619
c-6.05664 32.3213 -10.0713 64.6602 -13.4668 97.3506zM466.284 234.994c16.1279 60.4443 23.4102 122.909 22.251 185.418c-0.439453 23.7656 -1.74414 47.4434 -3.84766 71.0381c-32.5986 -3.84766 -59.3994 -24.5693 -84.4209 -45.0186
c-23.9287 -19.5625 -46.873 -40.4648 -67.6963 -63.3213c-42.3135 -46.4424 -76.3037 -100.505 -90.4199 -162.298c-13.9717 -61.1738 -2.04688 -128.918 58.3838 -159.307c39.9023 -20.0635 68.1787 0.175781 95.2344 28.0742
c37.5654 38.7344 56.9131 94.4307 70.5156 145.414zM252.296 709.009c-26.498 -33.7529 -46.1426 -71.3398 -60.7773 -111.098c-0.351562 -4.57617 -0.671875 -9.14844 -0.939453 -13.7246c-3.78613 -65.0342 -5.58301 -130.227 -5.12598 -195.37
c0.457031 -64.793 2.31934 -129.646 4.12891 -194.417c2.95605 21.249 8.15625 42.0586 15.1924 61.5469c22.624 62.6582 63.4746 117.05 110.264 163.733c44.791 44.6895 100.47 96.7051 166.343 102.977c-3.50977 29.374 -8.19629 58.6211 -14.0732 87.7188
c-10.502 52.0029 -26.375 112.065 -70.8799 145.639c-53.1797 40.1133 -110.541 -4.2168 -144.132 -47.0049z" />
    <glyph glyph-name="E" unicode="E" horiz-adv-x="520" 
d="M241.274 -47.5615c-157.075 15.1133 -180.287 218.25 -187.529 341.106c-4.58496 77.8242 -4.89648 155.754 -1.27344 233.617c3.70215 79.5674 7.19434 160.172 21.3857 238.659c0.219727 1.2207 0.606445 2.35352 0.949219 3.5127
c-4.4707 3.3291 -7.60254 7.8877 -7.91895 13.9404c-0.870117 16.6641 18.8945 24.9121 32.6416 26.0625c57.5635 4.81836 115.403 6.46582 173.15 5.18359c57.6553 -1.28223 116.527 -1.44043 173.581 -10.124c36.5244 -5.56055 27.4463 -43.2451 -5.55176 -44.585
c-56.3945 -2.29297 -112.961 3.36426 -169.387 4.54102c-17.9238 0.373047 -35.8389 0.614258 -53.7451 0.68457c0.0703125 -0.861328 0.219727 -1.6875 0.224609 -2.5791c0.285156 -84.9922 -10.6992 -170.011 -14.1162 -254.95
c-1.48047 -36.7842 -2.35059 -73.4629 -2.72852 -110.133c21.8467 1.1377 43.7764 1.28223 65.6885 1.7832l143.859 3.28125c28.2148 0.645508 30.6787 -31.0439 2.20898 -31.6016c-45.0586 -0.882812 -90.1133 -1.76562 -135.172 -2.65332
c-25.3379 -0.500977 -51.1768 -0.0136719 -76.7832 -1.34863c-0.0917969 -36.7402 0.294922 -73.4932 1.16895 -110.356c0.913086 -38.5713 3.37695 -77.0547 9.44238 -115.183c5.3623 -33.7227 10.6904 -68.0518 25.7031 -99.1221
c12.7236 -26.3311 28.9785 -44.875 59.4111 -47.0664c32.3301 -2.32812 83.5771 13.3037 103.061 40.2275c10.6855 14.7705 51.2207 7.6377 37.9258 -12.2979c-19.1455 -28.7158 -52.7627 -40.9834 -84.1748 -51.5068
c-36.2354 -12.1396 -73.4453 -22.8037 -112.021 -19.0928z" />
    <glyph glyph-name="E" unicode="&#xcb;" horiz-adv-x="520" 
d="M241.274 -47.5615c-157.075 15.1133 -180.287 218.25 -187.529 341.106c-4.58496 77.8242 -4.89648 155.754 -1.27344 233.617c3.70215 79.5674 7.19434 160.172 21.3857 238.659c0.219727 1.2207 0.606445 2.35352 0.949219 3.5127
c-4.4707 3.3291 -7.60254 7.8877 -7.91895 13.9404c-0.870117 16.6641 18.8945 24.9121 32.6416 26.0625c57.5635 4.81836 115.403 6.46582 173.15 5.18359c57.6553 -1.28223 116.527 -1.44043 173.581 -10.124c36.5244 -5.56055 27.4463 -43.2451 -5.55176 -44.585
c-56.3945 -2.29297 -112.961 3.36426 -169.387 4.54102c-17.9238 0.373047 -35.8389 0.614258 -53.7451 0.68457c0.0703125 -0.861328 0.219727 -1.6875 0.224609 -2.5791c0.285156 -84.9922 -10.6992 -170.011 -14.1162 -254.95
c-1.48047 -36.7842 -2.35059 -73.4629 -2.72852 -110.133c21.8467 1.1377 43.7764 1.28223 65.6885 1.7832l143.859 3.28125c28.2148 0.645508 30.6787 -31.0439 2.20898 -31.6016c-45.0586 -0.882812 -90.1133 -1.76562 -135.172 -2.65332
c-25.3379 -0.500977 -51.1768 -0.0136719 -76.7832 -1.34863c-0.0917969 -36.7402 0.294922 -73.4932 1.16895 -110.356c0.913086 -38.5713 3.37695 -77.0547 9.44238 -115.183c5.3623 -33.7227 10.6904 -68.0518 25.7031 -99.1221
c12.7236 -26.3311 28.9785 -44.875 59.4111 -47.0664c32.3301 -2.32812 83.5771 13.3037 103.061 40.2275c10.6855 14.7705 51.2207 7.6377 37.9258 -12.2979c-19.1455 -28.7158 -52.7627 -40.9834 -84.1748 -51.5068
c-36.2354 -12.1396 -73.4453 -22.8037 -112.021 -19.0928z" />
    <glyph glyph-name="E" unicode="&#xca;" horiz-adv-x="520" 
d="M241.274 -47.5615c-157.075 15.1133 -180.287 218.25 -187.529 341.106c-4.58496 77.8242 -4.89648 155.754 -1.27344 233.617c3.70215 79.5674 7.19434 160.172 21.3857 238.659c0.219727 1.2207 0.606445 2.35352 0.949219 3.5127
c-4.4707 3.3291 -7.60254 7.8877 -7.91895 13.9404c-0.870117 16.6641 18.8945 24.9121 32.6416 26.0625c57.5635 4.81836 115.403 6.46582 173.15 5.18359c57.6553 -1.28223 116.527 -1.44043 173.581 -10.124c36.5244 -5.56055 27.4463 -43.2451 -5.55176 -44.585
c-56.3945 -2.29297 -112.961 3.36426 -169.387 4.54102c-17.9238 0.373047 -35.8389 0.614258 -53.7451 0.68457c0.0703125 -0.861328 0.219727 -1.6875 0.224609 -2.5791c0.285156 -84.9922 -10.6992 -170.011 -14.1162 -254.95
c-1.48047 -36.7842 -2.35059 -73.4629 -2.72852 -110.133c21.8467 1.1377 43.7764 1.28223 65.6885 1.7832l143.859 3.28125c28.2148 0.645508 30.6787 -31.0439 2.20898 -31.6016c-45.0586 -0.882812 -90.1133 -1.76562 -135.172 -2.65332
c-25.3379 -0.500977 -51.1768 -0.0136719 -76.7832 -1.34863c-0.0917969 -36.7402 0.294922 -73.4932 1.16895 -110.356c0.913086 -38.5713 3.37695 -77.0547 9.44238 -115.183c5.3623 -33.7227 10.6904 -68.0518 25.7031 -99.1221
c12.7236 -26.3311 28.9785 -44.875 59.4111 -47.0664c32.3301 -2.32812 83.5771 13.3037 103.061 40.2275c10.6855 14.7705 51.2207 7.6377 37.9258 -12.2979c-19.1455 -28.7158 -52.7627 -40.9834 -84.1748 -51.5068
c-36.2354 -12.1396 -73.4453 -22.8037 -112.021 -19.0928z" />
    <glyph glyph-name="E" unicode="&#xc9;" horiz-adv-x="520" 
d="M241.274 -47.5615c-157.075 15.1133 -180.287 218.25 -187.529 341.106c-4.58496 77.8242 -4.89648 155.754 -1.27344 233.617c3.70215 79.5674 7.19434 160.172 21.3857 238.659c0.219727 1.2207 0.606445 2.35352 0.949219 3.5127
c-4.4707 3.3291 -7.60254 7.8877 -7.91895 13.9404c-0.870117 16.6641 18.8945 24.9121 32.6416 26.0625c57.5635 4.81836 115.403 6.46582 173.15 5.18359c57.6553 -1.28223 116.527 -1.44043 173.581 -10.124c36.5244 -5.56055 27.4463 -43.2451 -5.55176 -44.585
c-56.3945 -2.29297 -112.961 3.36426 -169.387 4.54102c-17.9238 0.373047 -35.8389 0.614258 -53.7451 0.68457c0.0703125 -0.861328 0.219727 -1.6875 0.224609 -2.5791c0.285156 -84.9922 -10.6992 -170.011 -14.1162 -254.95
c-1.48047 -36.7842 -2.35059 -73.4629 -2.72852 -110.133c21.8467 1.1377 43.7764 1.28223 65.6885 1.7832l143.859 3.28125c28.2148 0.645508 30.6787 -31.0439 2.20898 -31.6016c-45.0586 -0.882812 -90.1133 -1.76562 -135.172 -2.65332
c-25.3379 -0.500977 -51.1768 -0.0136719 -76.7832 -1.34863c-0.0917969 -36.7402 0.294922 -73.4932 1.16895 -110.356c0.913086 -38.5713 3.37695 -77.0547 9.44238 -115.183c5.3623 -33.7227 10.6904 -68.0518 25.7031 -99.1221
c12.7236 -26.3311 28.9785 -44.875 59.4111 -47.0664c32.3301 -2.32812 83.5771 13.3037 103.061 40.2275c10.6855 14.7705 51.2207 7.6377 37.9258 -12.2979c-19.1455 -28.7158 -52.7627 -40.9834 -84.1748 -51.5068
c-36.2354 -12.1396 -73.4453 -22.8037 -112.021 -19.0928z" />
    <glyph glyph-name="F" unicode="F" horiz-adv-x="369" 
d="M59.1152 186.372c-5.49023 65.8857 -6.74023 132.384 -8.11035 198.463c-1.40137 67.7178 -1.19531 135.392 -0.233398 203.109c0.970703 68.3281 2.09961 135.717 15.9258 202.872c5.66992 27.5381 45.1992 36.9854 68.2012 36.6475
c13.1895 -0.193359 27.3281 -3.46094 38.5059 -10.4404c76.9941 3.77734 154.05 5.73633 231.162 5.60938c8.91602 -0.0175781 23.1943 -2.6709 24.0029 -14.2002c0.742188 -10.5762 -12.7285 -17.415 -21.7939 -17.4014
c-71.0518 0.118164 -142.104 -1.08496 -213.103 -3.7334c10.6904 -65.6318 7.7959 -131.25 6.9043 -197.519c-0.729492 -54.3916 -1.16406 -108.797 -1.27344 -163.193c40.8252 3.54395 81.7598 5.6123 122.786 6.13965c26.6465 0.342773 29.0576 -29.6162 2.08984 -29.9014
c-41.7598 -0.43457 -83.4238 -2.47656 -124.982 -6.04297c0 -0.527344 -0.00488281 -1.05859 -0.00488281 -1.58594c0.131836 -129.506 4.57715 -259.21 6.90039 -388.619c0.926758 -51.6777 -83.7881 -50.1973 -106.008 -17.4229
c-19.9316 29.3965 -25.8613 63.6416 -30.5605 98.3525c-4.44043 32.7783 -7.66406 65.9082 -10.4092 98.8662z" />
    <glyph glyph-name="G" unicode="G" horiz-adv-x="654" 
d="M156.942 -7.17969c-56.7861 30.9033 -82.2256 90.3857 -95.9775 150.593c-14.2344 62.3193 -12.7451 125.772 -6.00293 188.997c6.40332 60.0537 16.3818 119.562 32.0137 177.938c29.2959 109.395 89.8018 237.087 200.145 284.764
c56.0342 24.2139 130.459 23.6162 175.628 -22.3604c39.5068 -40.2139 43.3721 -99.6836 44.7422 -152.819c0.698242 -27.0908 -53.0703 -30.2402 -57.5068 -4.02344c-7.20312 42.582 -16.7998 107.954 -63.5449 126.621
c-32.2598 12.8818 -64.0371 -44.0312 -77.0596 -64.9863c-45.8848 -73.8398 -70.626 -162.451 -86.7979 -247.148c-18.1348 -94.9707 -32.5059 -192.704 -18.7939 -289.331c5.02051 -35.3701 13.2686 -81.4346 42.2432 -106.018
c30.4287 -25.8164 72.6279 -0.786133 94.3906 23.999c31.0264 35.335 50.4219 80.2402 67.415 123.582c7.33887 18.7188 13.9053 37.6973 19.8125 56.8779c0.307617 15.9131 1.39648 31.8213 4.3125 46.8691c-13.4531 -0.84375 -26.8535 -1.08105 -39.8672 0.763672
c-27.6045 3.91309 -13.6768 31.8203 9.23242 28.7939c12.6797 -1.67773 26.0625 -1.2959 39.5723 -0.263672c1.54199 3.46094 3.20215 6.85645 5.1123 10.1025c15.3984 26.124 62.2051 20.3613 77.248 -1.55566c0.891602 -1.2998 1.73535 -2.65234 2.53516 -4.03125
c20.2041 -0.126953 40.4033 -0.719727 60.585 -1.75195c8.89355 -0.457031 19.6846 -7.80469 16.8867 -17.8271c-2.99121 -10.7119 -17.3447 -13.2158 -26.6602 -12.6533c-13.4092 0.808594 -26.8184 1.34863 -40.2314 1.7041
c2.70508 -13.6641 3.78125 -27.9072 4.95801 -40.3936c2.13477 -22.6631 3.75977 -45.3926 5.63965 -68.082c3.99707 -48.2646 8.00293 -96.543 7.49316 -144.992c-0.615234 -58.4551 -121.842 -67.4541 -125.896 -8.80176
c-2.02441 29.3086 -2.36719 58.6562 -2.07715 88.0127c-25.4658 -50.5049 -58.7363 -92.959 -108.284 -122.514c-49.8242 -29.7168 -110.98 -27.4238 -161.266 -0.0654297z" />
    <glyph glyph-name="H" unicode="H" horiz-adv-x="647" 
d="M66.1104 191.502c-7.87988 70.125 -12.8916 140.124 -14.543 210.675c-3.34277 142.713 -4.21289 291.065 27.9727 430.801c6.82129 29.6113 48.3711 40.21 73.7666 39.6348c23.5195 -0.53125 63.1846 -12.6709 63.4785 -42.832
c1.36621 -139.046 -14.6953 -277.806 -14.0938 -417.04c0.228516 -53.333 1.06738 -106.768 2.73242 -160.118c78.2588 8.91113 156.952 13.7861 235.689 16.2852c-1.15918 42.4541 -1.09375 84.9346 -0.615234 127.446c0.794922 70.8936 4.02734 141.638 8.05469 212.412
c4.09375 71.8857 7.04102 145.458 23.7354 215.723c11.3271 47.6719 115.859 49.1172 121.411 -2.82812c7.33887 -68.6445 0.43457 -138.567 -3.24609 -207.286c-3.71582 -69.3516 -6.79883 -138.769 -9.27148 -208.177
c-2.47266 -69.457 -3.11816 -138.984 -4.0625 -208.472c-0.448242 -32.8662 -0.374023 -65.7588 -0.150391 -98.6211c0.109375 -16.0439 1.10156 -32.0576 1.13672 -48.0664c0.0175781 -7.875 0.566406 -16.0527 0.0703125 -23.8799
c-0.575195 -9.05176 -4.87988 -15.2969 -7.75684 -23.7119c-9.19727 -26.9238 -54.2119 -29.6426 -72.3643 -11.6572c-14.9639 14.8232 -22.3867 25.2109 -29.5107 45.2217c-6.10938 17.1602 -9.51758 35.7344 -12.8994 53.6143
c-6.11426 32.3125 -8.30566 65.0957 -10.6641 97.8613c-1.13281 15.7148 -1.99414 31.4346 -2.68359 47.1582c-78.7158 -3.42188 -157.207 -9.70215 -235.646 -17.0674c0.219727 -5.73145 0.386719 -11.4717 0.624023 -17.1992
c1.43652 -34.4258 2.9873 -69.0098 3.38281 -103.466c0.197266 -17.2305 -0.210938 -34.7861 -1.77441 -51.9375c-0.782227 -8.59082 -0.821289 -19.0439 -3.31641 -27.1562c-2.55664 -8.30078 -9.14453 -15.8555 -12.7939 -23.7178
c-9.84668 -21.1963 -49.0068 -30.1338 -65.0908 -10.4883c-14.415 17.6035 -25.373 28.8828 -32.3213 51.252c-5.3623 17.252 -9.92969 35.334 -13.5703 53.0342c-6.95312 33.7793 -11.833 68.3496 -15.6807 102.604z" />
    <glyph glyph-name="I" unicode="I" horiz-adv-x="342" 
d="M71.4346 786.15c-21.7715 -3.34277 -31.2383 24.6846 -7.69238 28.5498c26.7256 4.39258 53.5039 8.1123 80.3438 11.165c11.2529 3.64551 23.1904 5.15625 32.5674 5.02051c3.28516 -0.0439453 6.67188 -0.316406 10.0762 -0.773438
c27.6084 2.37207 55.2959 4.02344 83.0713 4.84473c28.2637 0.834961 30.6357 -31.0605 2.20996 -31.6006c-13.4795 -0.258789 -26.9453 -0.742188 -40.3984 -1.35742c1.37012 -3.10547 2.37988 -6.47461 2.88477 -10.1465
c9.05664 -65.6006 4.84473 -132.281 2.55176 -198.277c-2.25781 -64.9639 -5.55664 -129.884 -7.56836 -194.86c-1.98535 -64.2305 -4.7832 -128.505 -6.01758 -192.748c-1.07129 -55.5254 -0.856445 -111.327 -7.64258 -166.426
c19.5449 -0.874023 38.4971 -3.74219 55.4414 -8.41504c10.6201 -2.9248 20.3223 -13.167 16.9971 -24.7012c-3.66699 -12.7285 -19.3428 -17.5029 -30.7139 -18.9834c-29.5371 -3.83887 -59.2451 0.992188 -88.9707 -1.83594
c-26.4492 -2.5127 -55.248 -18.0127 -80.542 -5.24023c-3.00391 1.51562 -5.90234 4.81445 -6.98242 8.04297c-2.64844 7.90137 -0.921875 16.3916 6.50488 21.333c10.6943 7.11523 22.7686 12.7988 35.6113 17.3008c-23.0938 52.96 -30.7363 112.175 -34.1582 169.522
c-3.90918 65.5 -4.07617 130.833 -3.27246 196.421c0.808594 66.2861 1.42383 132.708 4.30078 198.941c2.89844 66.7598 4.73438 133.897 18.6797 199.415c-12.4385 -1.59473 -24.873 -3.29004 -37.2812 -5.19141z" />
    <glyph glyph-name="I" unicode="&#xcf;" horiz-adv-x="342" 
d="M71.4346 786.15c-21.7715 -3.34277 -31.2383 24.6846 -7.69238 28.5498c26.7256 4.39258 53.5039 8.1123 80.3438 11.165c11.2529 3.64551 23.1904 5.15625 32.5674 5.02051c3.28516 -0.0439453 6.67188 -0.316406 10.0762 -0.773438
c27.6084 2.37207 55.2959 4.02344 83.0713 4.84473c28.2637 0.834961 30.6357 -31.0605 2.20996 -31.6006c-13.4795 -0.258789 -26.9453 -0.742188 -40.3984 -1.35742c1.37012 -3.10547 2.37988 -6.47461 2.88477 -10.1465
c9.05664 -65.6006 4.84473 -132.281 2.55176 -198.277c-2.25781 -64.9639 -5.55664 -129.884 -7.56836 -194.86c-1.98535 -64.2305 -4.7832 -128.505 -6.01758 -192.748c-1.07129 -55.5254 -0.856445 -111.327 -7.64258 -166.426
c19.5449 -0.874023 38.4971 -3.74219 55.4414 -8.41504c10.6201 -2.9248 20.3223 -13.167 16.9971 -24.7012c-3.66699 -12.7285 -19.3428 -17.5029 -30.7139 -18.9834c-29.5371 -3.83887 -59.2451 0.992188 -88.9707 -1.83594
c-26.4492 -2.5127 -55.248 -18.0127 -80.542 -5.24023c-3.00391 1.51562 -5.90234 4.81445 -6.98242 8.04297c-2.64844 7.90137 -0.921875 16.3916 6.50488 21.333c10.6943 7.11523 22.7686 12.7988 35.6113 17.3008c-23.0938 52.96 -30.7363 112.175 -34.1582 169.522
c-3.90918 65.5 -4.07617 130.833 -3.27246 196.421c0.808594 66.2861 1.42383 132.708 4.30078 198.941c2.89844 66.7598 4.73438 133.897 18.6797 199.415c-12.4385 -1.59473 -24.873 -3.29004 -37.2812 -5.19141z" />
    <glyph glyph-name="I" unicode="&#xce;" horiz-adv-x="342" 
d="M71.4346 786.15c-21.7715 -3.34277 -31.2383 24.6846 -7.69238 28.5498c26.7256 4.39258 53.5039 8.1123 80.3438 11.165c11.2529 3.64551 23.1904 5.15625 32.5674 5.02051c3.28516 -0.0439453 6.67188 -0.316406 10.0762 -0.773438
c27.6084 2.37207 55.2959 4.02344 83.0713 4.84473c28.2637 0.834961 30.6357 -31.0605 2.20996 -31.6006c-13.4795 -0.258789 -26.9453 -0.742188 -40.3984 -1.35742c1.37012 -3.10547 2.37988 -6.47461 2.88477 -10.1465
c9.05664 -65.6006 4.84473 -132.281 2.55176 -198.277c-2.25781 -64.9639 -5.55664 -129.884 -7.56836 -194.86c-1.98535 -64.2305 -4.7832 -128.505 -6.01758 -192.748c-1.07129 -55.5254 -0.856445 -111.327 -7.64258 -166.426
c19.5449 -0.874023 38.4971 -3.74219 55.4414 -8.41504c10.6201 -2.9248 20.3223 -13.167 16.9971 -24.7012c-3.66699 -12.7285 -19.3428 -17.5029 -30.7139 -18.9834c-29.5371 -3.83887 -59.2451 0.992188 -88.9707 -1.83594
c-26.4492 -2.5127 -55.248 -18.0127 -80.542 -5.24023c-3.00391 1.51562 -5.90234 4.81445 -6.98242 8.04297c-2.64844 7.90137 -0.921875 16.3916 6.50488 21.333c10.6943 7.11523 22.7686 12.7988 35.6113 17.3008c-23.0938 52.96 -30.7363 112.175 -34.1582 169.522
c-3.90918 65.5 -4.07617 130.833 -3.27246 196.421c0.808594 66.2861 1.42383 132.708 4.30078 198.941c2.89844 66.7598 4.73438 133.897 18.6797 199.415c-12.4385 -1.59473 -24.873 -3.29004 -37.2812 -5.19141z" />
    <glyph glyph-name="I" unicode="&#xcd;" horiz-adv-x="342" 
d="M71.4346 786.15c-21.7715 -3.34277 -31.2383 24.6846 -7.69238 28.5498c26.7256 4.39258 53.5039 8.1123 80.3438 11.165c11.2529 3.64551 23.1904 5.15625 32.5674 5.02051c3.28516 -0.0439453 6.67188 -0.316406 10.0762 -0.773438
c27.6084 2.37207 55.2959 4.02344 83.0713 4.84473c28.2637 0.834961 30.6357 -31.0605 2.20996 -31.6006c-13.4795 -0.258789 -26.9453 -0.742188 -40.3984 -1.35742c1.37012 -3.10547 2.37988 -6.47461 2.88477 -10.1465
c9.05664 -65.6006 4.84473 -132.281 2.55176 -198.277c-2.25781 -64.9639 -5.55664 -129.884 -7.56836 -194.86c-1.98535 -64.2305 -4.7832 -128.505 -6.01758 -192.748c-1.07129 -55.5254 -0.856445 -111.327 -7.64258 -166.426
c19.5449 -0.874023 38.4971 -3.74219 55.4414 -8.41504c10.6201 -2.9248 20.3223 -13.167 16.9971 -24.7012c-3.66699 -12.7285 -19.3428 -17.5029 -30.7139 -18.9834c-29.5371 -3.83887 -59.2451 0.992188 -88.9707 -1.83594
c-26.4492 -2.5127 -55.248 -18.0127 -80.542 -5.24023c-3.00391 1.51562 -5.90234 4.81445 -6.98242 8.04297c-2.64844 7.90137 -0.921875 16.3916 6.50488 21.333c10.6943 7.11523 22.7686 12.7988 35.6113 17.3008c-23.0938 52.96 -30.7363 112.175 -34.1582 169.522
c-3.90918 65.5 -4.07617 130.833 -3.27246 196.421c0.808594 66.2861 1.42383 132.708 4.30078 198.941c2.89844 66.7598 4.73438 133.897 18.6797 199.415c-12.4385 -1.59473 -24.873 -3.29004 -37.2812 -5.19141z" />
    <glyph glyph-name="J" unicode="J" horiz-adv-x="571" 
d="M69.9365 792.093c-20.0459 -2.28418 -29.2012 22.8252 -7.14355 26.4971c150.074 24.9912 303.148 34.377 455.177 35.5186c27.7578 0.210938 30.3008 -31.0566 2.17773 -31.1748c-28.1494 -0.123047 -56.2412 -0.680664 -84.2979 -1.61133
c0.202148 -0.513672 0.430664 -0.99707 0.606445 -1.52832c39.6123 -121.398 52.3057 -250.228 58.5332 -377.388c2.6748 -54.6602 1.84863 -109.72 0.62793 -164.415c-1.25195 -56.0215 -5.60059 -113.026 -18.7637 -167.594
c-20.6426 -85.5801 -79.1191 -187.881 -181.645 -178.302c-100.285 9.36816 -147.702 113.193 -166.725 199.318c-11.2705 51.0273 -15.4961 102.547 -15.1934 154.721c0.311523 54.0146 -0.105469 111.89 12.2939 164.674
c7.84863 33.4199 84.3457 35.5674 86.6914 -2.02051c3.30762 -52.9688 -7.13672 -107.4 -8.89355 -160.471c-1.66504 -50.2764 -1.56836 -101.37 4.69434 -151.344c5.24023 -41.8125 10.8486 -88.791 33.2129 -125.461c14.832 -24.3232 54.4932 -53.2412 76.0449 -21.2627
c17.8447 26.4756 21.9775 64.0283 23.5283 95.0762c2.24023 44.8828 3.43457 89.9111 4.07617 134.843c1.3877 96.6748 3.61035 193.271 2.53906 289.98c-1.08887 98.4541 -6.25391 196.692 -0.197266 294.983c0.272461 4.42676 1.625 8.5293 3.78613 12.2715
c-93.8643 -5.49023 -187.421 -14.6123 -281.131 -25.3115z" />
    <glyph glyph-name="K" unicode="K" horiz-adv-x="565" 
d="M61.415 167.881c-5.80664 67.9678 -9.79102 135.818 -10.5859 204.028c-1.58594 135.77 -4.23926 278.364 27.9238 411.02c12.2451 50.4873 131.337 55.0635 132.984 -3.10156c1.90625 -67.3535 -3.68066 -134.377 -7.67773 -201.599
c-2.26172 -38.0312 -3.87402 -76.0977 -4.99414 -114.178c48.7969 38.3779 93.8428 81.4248 129.827 132.36c20.4932 29.0059 38.04 60.0322 51.1328 93.0781c13.1982 33.3145 30.8154 80.2402 19.3867 115.873c-6.45605 20.1289 33.6396 27.5645 39.4727 10.4043
c12.873 -37.8779 1.0498 -80.8018 -11.2354 -117.524c-12.083 -36.125 -29.3965 -70.8047 -50.2236 -102.679c-34.083 -52.1562 -77.7227 -97.1709 -125.438 -137.108c2.98242 -0.0527344 5.96875 -0.140625 8.96875 -0.25
c27.9473 -1.0498 54.4053 -8.00684 79.458 -20.4541c45.0322 -22.373 77.0156 -64.0547 101.932 -106.461c50.9619 -86.7266 82.1504 -196.367 70.1553 -297.245c-4.26953 -35.9014 -35.0762 -51.6689 -69.001 -55.0947
c-27.9121 -2.81934 -74.4727 10.6289 -75.9971 44.9531c-3.80371 85.7031 -12.4785 167.792 -41.7344 248.993c-12.4775 34.6367 -26.8086 77.0293 -54.2637 102.837c-10.9316 10.2773 -24.666 16.1367 -38.752 20.9375c-9.33301 3.17969 -18.8506 5.49902 -28.0605 9.05273
c-2.23535 0.865234 -4.53223 2.01172 -6.86035 3.19727c-0.162109 -10.3389 -0.355469 -20.6826 -0.438477 -31.0264c-0.53125 -66.8125 -0.948242 -133.704 -0.0126953 -200.513c0.478516 -33.8496 1.18164 -68.1211 -0.754883 -101.936
c-1.00098 -17.4941 -2.77148 -35.1943 -5.49023 -52.499c-3.03906 -19.3516 -10.3213 -28.8691 -23.9941 -42.3223c-10.8438 -10.668 -36.1289 -12.0381 -48.5059 -3.38965c-17.915 12.5264 -25.3994 21.6748 -31.957 42.4541
c-5.24902 16.6289 -9.60156 34.2725 -12.8389 51.4062c-6.02148 31.874 -9.66699 64.4941 -12.4248 96.7852z" />
    <glyph glyph-name="L" unicode="L" horiz-adv-x="305" 
d="M54.9023 197.888c-3.59277 66.5674 -4.43457 133.128 -4.75488 199.787c-0.320312 66.6152 -0.193359 133.27 1.20312 199.876c1.43164 68.1396 0.842773 138.163 18.7402 204.317c14.3535 53.0654 121.812 52.0029 131.764 -3.07031
c11.7969 -65.2803 5.42383 -133.147 3.39453 -199.165c-2.00684 -65.2402 -3.4873 -130.489 -4.19043 -195.756c-0.703125 -65.3018 -0.549805 -130.582 -1.62988 -195.88c-1.11523 -67.3447 2.46387 -136.613 -14.5068 -202.354
c39.6387 0.667969 79.2773 1.33984 118.916 2.01172c26.2871 0.448242 28.6328 -29.0889 2.06055 -29.4756c-53.6318 -0.782227 -107.269 -1.56445 -160.9 -2.34668c-25.8037 -5.36719 -55.6484 0.974609 -63.084 22.4785
c-22.2021 64.2168 -23.3838 132.369 -27.0117 199.577z" />
    <glyph glyph-name="M" unicode="M" horiz-adv-x="914" 
d="M58.6143 186.798c-3.18457 63.791 -5.42871 127.512 -6.46094 191.373c-2.12598 130.6 -5.30566 261.906 5.34961 392.172c2.72754 33.3496 33.5557 48.0371 64.0146 51.1162c25.7295 2.60059 69.3213 -9.85938 70.5068 -41.707
c4.85742 -130.503 -0.791016 -261.326 -1.54199 -391.903c-0.00390625 -0.518555 -0.0078125 -1.03711 -0.0126953 -1.55566c12.127 70.4492 26.5283 140.539 46.3369 209.249c12.3594 42.8799 26.1377 85.9707 44.2109 126.826
c14.7139 33.2529 35.3037 68.5967 69.5625 84.7373c39.1338 18.4424 81.5664 3.33789 108.016 -29.3047c29.5723 -36.4941 40.7373 -81.8994 49.7803 -127.13c8.29199 -41.4707 15.7188 -83.5781 21.2393 -125.944c10.1455 49.3545 22.2109 98.2871 37.0869 146.407
c19.334 62.5439 49.8682 173.379 137.474 145.542c86.1426 -27.3721 107.212 -132.616 123.059 -209.892c18.6055 -90.7451 20.8545 -184.481 23.3359 -276.751c2.49902 -92.9502 4.83594 -186.151 0.575195 -278.979c-3 -65.3857 -128.852 -74.6133 -140.069 -9.79395
c-15.8867 91.7598 -12.8477 185.312 -11.6924 278.2c1.00977 81.4033 1.82227 163.25 -1.74414 244.597c-1.77441 40.46 -4.625 81.0127 -5.85938 121.473c-0.948242 31.1445 -0.948242 62.9395 -13.9971 91.6768c-4.59375 10.1191 -5.38477 11.8848 -14.582 3.58789
c-6.09668 -5.49902 -10.8184 -13.0312 -14.9951 -20.041c-8.85059 -14.8496 -14.7627 -31.4434 -20.7012 -47.6152c-13.875 -37.7988 -25.5361 -76.3789 -35.6514 -115.346c-20.2871 -78.1445 -33.9727 -157.813 -50.4609 -236.802
c-0.408203 -1.96777 -1.3125 -3.65918 -2.51562 -5.12598c-3.34277 -63.0186 -122.47 -69.6113 -135.049 -8.47266c-19.5713 95.1465 -13.1367 193.965 -16.2461 290.543c-1.22949 38.2021 -1.23828 77.6299 -10.1279 115.033
c-1.84863 7.77441 -6.14844 14.8418 -8.06348 22.418c-0.0917969 0.360352 -0.170898 0.636719 -0.258789 0.948242c-3.11426 -1.99805 -7.08008 -6.07422 -8.96387 -7.91895c-12.8428 -12.5879 -22.2637 -28.9219 -29.9238 -45.0098
c-33.8721 -71.1172 -54.2998 -150.47 -71.6396 -226.998c-17.9023 -79.0234 -30.6748 -159.087 -42.7842 -239.164c-9.55762 -63.2285 -16.6113 -128.72 -30.5918 -191.721c-2.17383 -23.9902 -5.87207 -47.7646 -12.2803 -71.0557
c-8.39746 -30.5381 -76.3564 -38.1367 -87.5342 -6.12305c-22.2588 63.7646 -23.4619 131.535 -26.7998 198.453zM368.987 776.848c-2.08594 7.24707 -2.56055 0.632812 0 0z" />
    <glyph glyph-name="N" unicode="N" horiz-adv-x="654" 
d="M67.7129 76.2217c-5.27539 34.1484 -8.81348 69.1758 -10.9346 103.658c-4.07617 66.4707 -6.69434 132.84 -6.77344 199.438c-0.0791016 67.999 1.19434 135.993 3.83398 203.939c2.65723 68.3018 0.580078 142.028 20.1816 207.963
c15.2979 51.4453 125.07 54.4453 132.985 -3.10059c9.10938 -66.2549 -2.73145 -136.59 -5.6123 -203.192c-2.88086 -66.5273 -4.45312 -133.107 -4.7168 -199.692c-0.109375 -27.8506 -0.0878906 -55.6963 -0.0175781 -83.542
c8.25293 43.0205 16.7695 85.9932 25.9268 128.834c12.3857 57.9277 26.1064 115.601 42.4277 172.553c15.2227 53.1143 30.8408 107.739 56.4688 156.922c23.4668 45.0322 56.2451 86.832 112.056 75.8564c49.0332 -9.64551 85.624 -46.043 102.67 -92.3926
c41.2686 -112.21 50.3604 -235.923 54.1553 -354.479c1.92383 -60.1807 3.53125 -120.396 2.89453 -180.608c-0.671875 -63.4707 3.31641 -132.782 -15.8242 -193.96c-17.0723 -54.5547 -119.637 -51.3398 -132.984 3.10059
c-14.7705 60.251 -6.54395 127.095 -5.95996 188.642c0.597656 63.207 2.16602 126.388 2.31055 189.604c0.241211 106.131 7.80859 212.636 -2.49512 318.573c-1.9502 20.0459 -3.14453 41.6152 -9.45996 60.7959c-2.48145 7.53711 -6.13574 20.0146 -12.2715 25.6191
c-9.67188 8.83691 -16.752 -0.500977 -24.3857 -9.21484c-33.666 -38.4395 -49.6582 -90.7627 -65.123 -138.457c-61.8105 -190.631 -87.5137 -389.546 -131.861 -584.332c-0.821289 -12.7637 -2.04199 -25.5977 -4.02734 -38.084
c-2.98242 -18.7588 -10.7393 -31.8301 -22.2383 -46.7285c-13.4834 -17.4717 -45.0186 -19.4922 -60.8262 -4.25195c-13.6904 13.2031 -23.1465 24.877 -28.6104 43.1748c-5.16992 17.3047 -9.03027 35.5146 -11.7881 53.3643z" />
    <glyph glyph-name="O" unicode="O" horiz-adv-x="586" 
d="M81.9111 189.854c-11.0947 62.2578 -11.4912 129.237 -5.45215 194.68c-28.9131 49.332 -30.0947 119.158 -22.457 171.916c20.2305 139.788 156.61 329.242 318.464 251.467c71.6484 -34.4297 116.659 -112.653 137.354 -186.301
c24.7588 -88.1104 32.2256 -182.291 21.8604 -273.317c-9.77246 -85.8086 -28.1406 -178.416 -75.7822 -252.046c-46.1787 -71.3721 -130.688 -112.82 -215.469 -97.4521c-43.6133 7.90137 -83.041 32.0801 -109.995 67.292
c-28.0527 36.6436 -40.5039 78.751 -48.5234 123.762zM94.3223 545.019c-1.49316 -14.9727 -2.30469 -32.377 -1.66797 -50.4678c7.7959 27.5645 49.2002 37.499 73.0098 36.959c22.457 -0.504883 64.4678 -12.7676 63.4795 -42.832
c-1.42773 -43.3984 -5.69727 -86.4014 -9.28125 -129.431c36.1387 12.623 68.3809 45.2256 89.7393 74.3018c11.2568 15.3281 53.3467 6.93066 39.0195 -12.6533c-32.0752 -43.8467 -78.8867 -82.8184 -131.268 -94.2119
c-2.56543 -36.7266 -3.99316 -73.541 -2.04785 -110.712c1.92383 -36.7881 4.24316 -73.9502 19.5537 -108.042c9.44336 -21.0254 26.7305 -46.8115 52.3018 -47.6504c57.8926 -1.90625 97.3604 66.0088 115.855 111.555c27.0859 66.6982 41.8477 139.142 48.4883 210.637
c6.83398 73.5771 2.65723 147.571 -8.40625 220.537c-9.89062 65.2451 -25.3594 136.946 -85.8604 173.734c-65.1348 39.6084 -136.968 3.73828 -182.483 -48.3262c-44.3916 -50.7773 -73.7305 -116.146 -80.4326 -183.397z" />
    <glyph glyph-name="O" unicode="&#xd6;" horiz-adv-x="586" 
d="M81.9111 189.854c-11.0947 62.2578 -11.4912 129.237 -5.45215 194.68c-28.9131 49.332 -30.0947 119.158 -22.457 171.916c20.2305 139.788 156.61 329.242 318.464 251.467c71.6484 -34.4297 116.659 -112.653 137.354 -186.301
c24.7588 -88.1104 32.2256 -182.291 21.8604 -273.317c-9.77246 -85.8086 -28.1406 -178.416 -75.7822 -252.046c-46.1787 -71.3721 -130.688 -112.82 -215.469 -97.4521c-43.6133 7.90137 -83.041 32.0801 -109.995 67.292
c-28.0527 36.6436 -40.5039 78.751 -48.5234 123.762zM94.3223 545.019c-1.49316 -14.9727 -2.30469 -32.377 -1.66797 -50.4678c7.7959 27.5645 49.2002 37.499 73.0098 36.959c22.457 -0.504883 64.4678 -12.7676 63.4795 -42.832
c-1.42773 -43.3984 -5.69727 -86.4014 -9.28125 -129.431c36.1387 12.623 68.3809 45.2256 89.7393 74.3018c11.2568 15.3281 53.3467 6.93066 39.0195 -12.6533c-32.0752 -43.8467 -78.8867 -82.8184 -131.268 -94.2119
c-2.56543 -36.7266 -3.99316 -73.541 -2.04785 -110.712c1.92383 -36.7881 4.24316 -73.9502 19.5537 -108.042c9.44336 -21.0254 26.7305 -46.8115 52.3018 -47.6504c57.8926 -1.90625 97.3604 66.0088 115.855 111.555c27.0859 66.6982 41.8477 139.142 48.4883 210.637
c6.83398 73.5771 2.65723 147.571 -8.40625 220.537c-9.89062 65.2451 -25.3594 136.946 -85.8604 173.734c-65.1348 39.6084 -136.968 3.73828 -182.483 -48.3262c-44.3916 -50.7773 -73.7305 -116.146 -80.4326 -183.397z" />
    <glyph glyph-name="O" unicode="&#xd5;" horiz-adv-x="586" 
d="M81.9111 189.854c-11.0947 62.2578 -11.4912 129.237 -5.45215 194.68c-28.9131 49.332 -30.0947 119.158 -22.457 171.916c20.2305 139.788 156.61 329.242 318.464 251.467c71.6484 -34.4297 116.659 -112.653 137.354 -186.301
c24.7588 -88.1104 32.2256 -182.291 21.8604 -273.317c-9.77246 -85.8086 -28.1406 -178.416 -75.7822 -252.046c-46.1787 -71.3721 -130.688 -112.82 -215.469 -97.4521c-43.6133 7.90137 -83.041 32.0801 -109.995 67.292
c-28.0527 36.6436 -40.5039 78.751 -48.5234 123.762zM94.3223 545.019c-1.49316 -14.9727 -2.30469 -32.377 -1.66797 -50.4678c7.7959 27.5645 49.2002 37.499 73.0098 36.959c22.457 -0.504883 64.4678 -12.7676 63.4795 -42.832
c-1.42773 -43.3984 -5.69727 -86.4014 -9.28125 -129.431c36.1387 12.623 68.3809 45.2256 89.7393 74.3018c11.2568 15.3281 53.3467 6.93066 39.0195 -12.6533c-32.0752 -43.8467 -78.8867 -82.8184 -131.268 -94.2119
c-2.56543 -36.7266 -3.99316 -73.541 -2.04785 -110.712c1.92383 -36.7881 4.24316 -73.9502 19.5537 -108.042c9.44336 -21.0254 26.7305 -46.8115 52.3018 -47.6504c57.8926 -1.90625 97.3604 66.0088 115.855 111.555c27.0859 66.6982 41.8477 139.142 48.4883 210.637
c6.83398 73.5771 2.65723 147.571 -8.40625 220.537c-9.89062 65.2451 -25.3594 136.946 -85.8604 173.734c-65.1348 39.6084 -136.968 3.73828 -182.483 -48.3262c-44.3916 -50.7773 -73.7305 -116.146 -80.4326 -183.397z" />
    <glyph glyph-name="O" unicode="&#xd4;" horiz-adv-x="586" 
d="M81.9111 189.854c-11.0947 62.2578 -11.4912 129.237 -5.45215 194.68c-28.9131 49.332 -30.0947 119.158 -22.457 171.916c20.2305 139.788 156.61 329.242 318.464 251.467c71.6484 -34.4297 116.659 -112.653 137.354 -186.301
c24.7588 -88.1104 32.2256 -182.291 21.8604 -273.317c-9.77246 -85.8086 -28.1406 -178.416 -75.7822 -252.046c-46.1787 -71.3721 -130.688 -112.82 -215.469 -97.4521c-43.6133 7.90137 -83.041 32.0801 -109.995 67.292
c-28.0527 36.6436 -40.5039 78.751 -48.5234 123.762zM94.3223 545.019c-1.49316 -14.9727 -2.30469 -32.377 -1.66797 -50.4678c7.7959 27.5645 49.2002 37.499 73.0098 36.959c22.457 -0.504883 64.4678 -12.7676 63.4795 -42.832
c-1.42773 -43.3984 -5.69727 -86.4014 -9.28125 -129.431c36.1387 12.623 68.3809 45.2256 89.7393 74.3018c11.2568 15.3281 53.3467 6.93066 39.0195 -12.6533c-32.0752 -43.8467 -78.8867 -82.8184 -131.268 -94.2119
c-2.56543 -36.7266 -3.99316 -73.541 -2.04785 -110.712c1.92383 -36.7881 4.24316 -73.9502 19.5537 -108.042c9.44336 -21.0254 26.7305 -46.8115 52.3018 -47.6504c57.8926 -1.90625 97.3604 66.0088 115.855 111.555c27.0859 66.6982 41.8477 139.142 48.4883 210.637
c6.83398 73.5771 2.65723 147.571 -8.40625 220.537c-9.89062 65.2451 -25.3594 136.946 -85.8604 173.734c-65.1348 39.6084 -136.968 3.73828 -182.483 -48.3262c-44.3916 -50.7773 -73.7305 -116.146 -80.4326 -183.397z" />
    <glyph glyph-name="O" unicode="&#xd3;" horiz-adv-x="586" 
d="M81.9111 189.854c-11.0947 62.2578 -11.4912 129.237 -5.45215 194.68c-28.9131 49.332 -30.0947 119.158 -22.457 171.916c20.2305 139.788 156.61 329.242 318.464 251.467c71.6484 -34.4297 116.659 -112.653 137.354 -186.301
c24.7588 -88.1104 32.2256 -182.291 21.8604 -273.317c-9.77246 -85.8086 -28.1406 -178.416 -75.7822 -252.046c-46.1787 -71.3721 -130.688 -112.82 -215.469 -97.4521c-43.6133 7.90137 -83.041 32.0801 -109.995 67.292
c-28.0527 36.6436 -40.5039 78.751 -48.5234 123.762zM94.3223 545.019c-1.49316 -14.9727 -2.30469 -32.377 -1.66797 -50.4678c7.7959 27.5645 49.2002 37.499 73.0098 36.959c22.457 -0.504883 64.4678 -12.7676 63.4795 -42.832
c-1.42773 -43.3984 -5.69727 -86.4014 -9.28125 -129.431c36.1387 12.623 68.3809 45.2256 89.7393 74.3018c11.2568 15.3281 53.3467 6.93066 39.0195 -12.6533c-32.0752 -43.8467 -78.8867 -82.8184 -131.268 -94.2119
c-2.56543 -36.7266 -3.99316 -73.541 -2.04785 -110.712c1.92383 -36.7881 4.24316 -73.9502 19.5537 -108.042c9.44336 -21.0254 26.7305 -46.8115 52.3018 -47.6504c57.8926 -1.90625 97.3604 66.0088 115.855 111.555c27.0859 66.6982 41.8477 139.142 48.4883 210.637
c6.83398 73.5771 2.65723 147.571 -8.40625 220.537c-9.89062 65.2451 -25.3594 136.946 -85.8604 173.734c-65.1348 39.6084 -136.968 3.73828 -182.483 -48.3262c-44.3916 -50.7773 -73.7305 -116.146 -80.4326 -183.397z" />
    <glyph glyph-name="P" unicode="P" horiz-adv-x="601" 
d="M64.54 186.346c-5.46387 66.3955 -9.0166 132.696 -10.8125 199.299c-3.63184 134.896 -10.5498 273.857 14.2354 407.083c4.97656 26.752 44.2988 35.9092 66.2373 35.5889c23.1592 -0.342773 54.2725 -11.4678 57 -38.4619
c6.70215 -66.3779 5.125 -132.321 3.99609 -198.928c-1.12891 -66.5762 -1.17676 -133.17 -0.123047 -199.746c0.0527344 -3.19727 0.123047 -6.39062 0.175781 -9.58789c12.9307 71.96 28.2676 143.42 46.4727 213.865c9.46484 36.6172 20.4229 72.9092 34.2578 108.134
c11.9512 30.4199 25.123 64.1904 45.1689 90.3633c44.5273 58.1387 113.58 31.0439 160.694 -7.82617c60.1367 -49.6133 86.7314 -122.896 94.9707 -198.567c8.08594 -74.2754 1.08887 -155.517 -21.7764 -226.787c-24.0557 -74.9951 -74.6006 -137.152 -150.303 -163.514
c-53.4736 -18.623 -134.35 -9.58008 -151.804 54.2637c-17.3574 63.4883 32.5723 133.081 72.2197 178.096c37.9873 43.126 83.7529 78.2979 134.557 104.721c5.52051 42.8008 7.98926 86.2832 3.3252 128.76c-4.11523 37.4473 -22.4395 138.642 -77.6133 133.63
c-27.1123 -2.46387 -43.5342 -49.6133 -52.6123 -69.6719c-11.8232 -26.1201 -21.8018 -53.0439 -30.5332 -80.3457c-19.5449 -61.1299 -33.0635 -124.131 -46.0557 -186.916c-23.7178 -114.625 -42.415 -230.243 -55.0859 -346.595
c0.0654297 -7.24219 0.0957031 -14.4844 0.0078125 -21.7314c-0.404297 -33.292 1.33496 -69.0088 -9.86035 -100.716c-11.9287 -33.7881 -73.5811 -36.8271 -90.5039 -6.32812c-16.9619 30.5781 -20.7041 68.3506 -25.9795 102.561
c-5.07324 32.9316 -7.52441 66.1582 -10.2559 99.3584zM398.311 307.025c22.7559 56.1221 42.1641 111.943 52.7666 171.825c0.694336 3.9043 1.37109 7.82227 2.03906 11.7529c-36.0596 -23.0635 -68.5967 -51.3662 -95.8145 -84.7949
c-30.0068 -36.8633 -96.0244 -127.126 -39.9463 -168.583c46.5391 -34.4082 68.8242 39.876 80.9551 69.7998z" />
    <glyph glyph-name="Q" unicode="Q" horiz-adv-x="592" 
d="M86.9053 273.99c-10.5547 25.2939 -17.915 52.1426 -23.6553 76.4707c-19.7383 83.7666 -17.2959 173.194 6.47461 255.894c19.5361 67.9639 54.458 139.354 113.545 181.298c58.543 41.5537 131.399 46.1562 194.602 11.9902
c63.3564 -34.25 106.839 -102.636 130.763 -168.702c27.3145 -75.417 37.3018 -156.509 31.3418 -236.366c-5.98633 -80.1777 -30.4111 -159.262 -70.1514 -229.136c-18.3633 -32.2822 -42.5283 -64.0986 -71.6611 -89.1289
c9.1748 -0.439453 18.3193 -1.19043 27.415 -2.38086c14.4893 -1.90137 33.5332 -10.4443 34.7148 -27.3018c1.15918 -16.5498 -16.4619 -28.501 -30.5742 -31.8652c-46.0645 -10.9805 -93.8418 -11.4023 -140.925 -13.5283
c-46.7539 -2.1123 -96.1084 -6.30664 -142.055 3.67676c-11.8848 2.58301 -22.5791 14.1172 -21.2041 26.3975c1.57715 14.0684 15.2451 21.2139 27.2881 25.1709c6.25 2.05566 12.6758 3.76465 19.2109 5.24512c-31.5049 23.792 -55.7891 57.7607 -68.6582 96.1523
c-12.7676 38.0889 -16.5098 76.959 -16.4707 116.114zM103.231 542.647c-6.49121 -39.3926 -7.91113 -79.9014 -4.47168 -119.913c9.78125 19.334 33.4551 29.3086 55.6045 30.8594c24.1299 1.68652 65.3232 -8.75391 66.3066 -39.2266
c2.45508 -76.252 -16.2461 -154.067 1.52441 -229.581c6.3418 -26.9541 20.0146 -55.9551 42.9326 -72.7988c8.24805 -6.06543 16.334 -8.99902 19.1494 -8.93359c4.15918 0.0966797 15.2627 4.61133 23.5986 10.1104c49.9512 32.9629 82.3564 92.292 104.019 146.354
c24.7852 61.8584 40.2061 129.62 44.4932 196.117c7.27344 112.833 -5.28809 281.486 -131.434 326.378c-133.02 47.3291 -205.521 -141.035 -221.723 -239.366z" />
    <glyph glyph-name="R" unicode="R" horiz-adv-x="626" 
d="M63.748 176.907c-7.08496 68.2188 -11.71 136.807 -13.0146 205.394c-1.30859 68.5078 -1.08887 137.227 2.48633 205.669c3.67578 70.3613 7.57129 141.167 23.3213 210.026c6.83398 29.875 48.8359 40.5654 74.4199 39.9854
c23.6035 -0.536133 63.9014 -12.7949 64.0459 -43.2148c0.329102 -68.4463 -7.84473 -136.546 -11.6396 -204.839c-1.96289 -35.3086 -3.64941 -70.6035 -4.89258 -105.916c13.7471 58.165 31.9785 115.377 56.3281 170.002
c22.1406 49.6709 47.7598 100.865 88.3125 138.167c39.7051 36.5205 93.2754 51.8711 145.317 34.9795c50.4434 -16.374 86.8369 -59.4521 100.11 -109.878c28.6807 -108.96 -31.2363 -225.391 -106.342 -301.453c-26.6729 -27.0156 -59.2402 -52.6787 -94.9346 -72.9922
c20.208 -5.47266 39.5732 -13.624 57.3047 -24.6133c95.6035 -59.2764 111.986 -178.896 129.278 -280.665c5.40625 -31.8125 -39.5254 -47.6201 -62.5488 -49.9434c-29.9717 -3.03027 -61.2344 10.4492 -68.8945 40.75c-18.7979 74.3584 3.32129 167.551 -48.4658 231.693
c-25.5537 31.6494 -65.1182 44.8213 -105.249 44.5752c-13.5586 -2.74023 -27.2002 -4.34375 -40.8242 -4.77832c-13.1768 -2.98633 -25.9004 -7.29102 -37.6357 -12.7588c-4.68652 -41.6152 -8.20508 -83.3975 -11.1611 -125.097
c0.500977 -26.2734 0.536133 -52.6309 0.0664062 -78.8301c-0.654297 -36.4199 -1.25195 -66.9668 -20.8145 -98.9717c-10.6338 -17.4014 -43.8203 -17.6211 -57.1025 -3.99219c-27.4512 28.1621 -34.457 61.6084 -42.1826 98.8672
c-6.66699 32.1543 -11.8984 65.1738 -15.2891 97.834zM311.02 669.81c-43.7275 -88.9355 -69.7832 -183.475 -86.4072 -280.176c34.5312 -7.2207 63.6025 3.45215 98.335 24.8633c38.3564 23.6426 71.9434 56.2715 98.9287 92.1641
c24.9121 33.1338 45.0723 70.4277 59.6807 109.219c15.6357 41.5273 30.4238 91.5928 12.4248 134.833c-7.44922 17.8936 -19.5713 34.7461 -36.916 44.1631c-20.5459 11.1514 -43.2793 1.74316 -61.2295 -10.6299c-39.415 -27.165 -64.1777 -72.4609 -84.8164 -114.437z
" />
    <glyph glyph-name="S" unicode="S" horiz-adv-x="535" 
d="M298.68 288.497c-77.7188 85.0225 -198.453 141.296 -238.114 256.475c-35.9453 104.348 23.458 227.336 123.225 272.408c50.7422 22.9229 116.286 28.3428 164.183 -4.48828c44.4482 -30.4678 59.1045 -84.627 64.5244 -135.343
c2.58301 -24.1699 -48.0586 -30.0645 -55.5078 -9.12695c-16.4395 46.2178 -36.582 122.461 -100.821 111.845c-51.7871 -8.56055 -88.6631 -61.5029 -90.9912 -111.674c-5.46777 -117.959 99.6133 -195.502 179.379 -264.428
c45.0811 -38.9541 88.4004 -84.9883 113.133 -139.89c25.6416 -56.917 41.2207 -126.949 7.58594 -183.871c-59.0039 -99.8594 -206.426 -115.965 -300.118 -60.4746c-48.8057 28.9043 -73.375 74.3623 -74.7539 130.854c-1.28711 52.6045 8.01074 108.885 48.9805 145.427
c14.002 12.4912 50.3994 -1.01855 31.2061 -18.46c-24.7061 -22.4482 -33.0732 -56.4785 -35.6562 -88.6465c-2.52539 -31.4961 -2.09473 -66.3652 11.8984 -95.3359c27.5078 -56.9658 116.615 -90.7803 175.725 -69.6191c45.6299 16.3389 63.7959 69.5801 57.5459 113.901
c-7.69531 54.5635 -44.8398 110.427 -81.4219 150.447z" />
    <glyph glyph-name="T" unicode="T" horiz-adv-x="451" 
d="M78.2012 771.112c-23.792 -8.2041 -41.9961 19.3438 -14.124 29.2256c34.8076 12.3242 75.7197 11.1953 112.165 13.6377c40.2578 2.70117 80.5508 4.80078 120.87 6.30273c0.25 0.00878906 0.496094 0.0126953 0.746094 0.0214844
c6.80762 0.900391 13.668 1.12012 20.3486 0.663086c34.7324 1.07617 69.4648 1.67773 104.215 2.05566c39.7139 0.43457 79.875 3.3418 119.483 0.0869141c31.0088 -2.54785 22.1328 -36.082 -4.60156 -36.9648c-40.333 -1.33105 -80.7578 2.83301 -121.147 2.81152
c-15.2402 -0.00878906 -30.4805 -0.158203 -45.7207 -0.337891c1.23438 -3.51855 2.05176 -7.33984 2.38574 -11.4639c5.41113 -66.7383 3.59277 -133.881 4.04492 -200.79c0.43457 -64.0986 1.32617 -128.192 2.24805 -192.286
c0.948242 -65.5264 1.90527 -131.315 1.07031 -196.837c-0.408203 -32.1016 -0.540039 -64.3525 -1.87988 -96.4277c-1.46289 -34.9131 -1.98535 -68.7852 -16.3428 -101.106c-13.1543 -29.6201 -67.375 -35.7871 -83.9688 -5.87207
c-17.6436 31.8076 -21.1885 66.8916 -25.0488 102.586c-3.43457 31.7773 -5.93359 63.8438 -8.19531 95.7217c-4.51953 63.7646 -7.08887 128.021 -8.88086 191.918c-1.83594 65.4951 -3.05273 131.017 -4.08887 196.529c-1.03223 65.5791 -3.46973 131.364 1.59863 196.815
c0.492188 6.38574 2.30176 12.2275 5.06445 17.5508c-15.6709 -0.689453 -31.3379 -1.41895 -47 -2.28906c-36.4365 -2.02441 -78.4688 0.435547 -113.241 -11.5508z" />
    <glyph glyph-name="U" unicode="U" horiz-adv-x="693" 
d="M94.4785 45.2842c-27.7539 50.5801 -35.9697 114.464 -40.7393 171.18c-5.54688 65.7539 -4.08887 131.996 -1.00586 197.82c2.97363 63.4443 7.58105 126.69 13.5762 189.91c3.29004 34.6973 6.52734 69.2988 10.7217 103.9
c3.95312 32.5723 5.88574 65.5039 18.5215 95.9805c12.3594 29.8135 75.5264 40.4727 89.9102 6.28906c24.9736 -59.3506 18.5439 -133.274 17.8936 -196.582c-0.680664 -66 -3.9707 -131.908 -4.94141 -197.899c-0.84375 -57.2383 -0.580078 -114.718 2.42383 -171.89
c2.87207 -54.7344 3.5791 -110.365 15.4551 -164.134c4.51074 -20.4189 9.42578 -42.5068 18.0215 -61.5908c9.56152 -21.2275 21.1562 -25.1895 41.5449 -12.8652c40.21 24.3057 66.2686 68.1084 85.2949 109.658c46.71 102.007 70.5547 214.296 93.4727 323.55
c12.7461 60.7607 24.3193 121.75 34.7988 182.933c4.80078 57.9277 14.125 114.871 20.9199 172.636c2.32324 19.7334 17.625 29.3086 36.1953 32.5986c14.5469 2.57812 44.4658 -0.369141 49.9736 -18.4336c19.7559 -64.8193 20.8584 -130.903 23.4238 -198.143
c2.58301 -67.7441 4.80566 -135.51 7.44141 -203.254c2.63965 -67.8711 7.37891 -135.536 11.6221 -203.311c4.34863 -69.4873 7.77051 -141.786 -2.9502 -210.804c-3.36914 -21.7012 -35.9414 -32.2031 -54.1777 -33.4814
c-18.5918 -1.2998 -50.8916 4.86719 -58.3096 25.6152c-23.458 65.6143 -31.4912 138.879 -35.4883 208.121c-3.47852 60.2598 -4.57617 120.787 -5.20898 181.166c-1.79199 -7.98926 -3.52734 -15.9912 -5.3584 -23.9717
c-24.9424 -108.696 -52.5293 -229.388 -121.543 -319.773c-28.1797 -36.9023 -69.8564 -76.4053 -119 -77.7715c-59.2012 -1.64258 -115.2 42.8145 -142.488 92.5459z" />
    <glyph glyph-name="U" unicode="&#xdc;" horiz-adv-x="693" 
d="M94.4785 45.2842c-27.7539 50.5801 -35.9697 114.464 -40.7393 171.18c-5.54688 65.7539 -4.08887 131.996 -1.00586 197.82c2.97363 63.4443 7.58105 126.69 13.5762 189.91c3.29004 34.6973 6.52734 69.2988 10.7217 103.9
c3.95312 32.5723 5.88574 65.5039 18.5215 95.9805c12.3594 29.8135 75.5264 40.4727 89.9102 6.28906c24.9736 -59.3506 18.5439 -133.274 17.8936 -196.582c-0.680664 -66 -3.9707 -131.908 -4.94141 -197.899c-0.84375 -57.2383 -0.580078 -114.718 2.42383 -171.89
c2.87207 -54.7344 3.5791 -110.365 15.4551 -164.134c4.51074 -20.4189 9.42578 -42.5068 18.0215 -61.5908c9.56152 -21.2275 21.1562 -25.1895 41.5449 -12.8652c40.21 24.3057 66.2686 68.1084 85.2949 109.658c46.71 102.007 70.5547 214.296 93.4727 323.55
c12.7461 60.7607 24.3193 121.75 34.7988 182.933c4.80078 57.9277 14.125 114.871 20.9199 172.636c2.32324 19.7334 17.625 29.3086 36.1953 32.5986c14.5469 2.57812 44.4658 -0.369141 49.9736 -18.4336c19.7559 -64.8193 20.8584 -130.903 23.4238 -198.143
c2.58301 -67.7441 4.80566 -135.51 7.44141 -203.254c2.63965 -67.8711 7.37891 -135.536 11.6221 -203.311c4.34863 -69.4873 7.77051 -141.786 -2.9502 -210.804c-3.36914 -21.7012 -35.9414 -32.2031 -54.1777 -33.4814
c-18.5918 -1.2998 -50.8916 4.86719 -58.3096 25.6152c-23.458 65.6143 -31.4912 138.879 -35.4883 208.121c-3.47852 60.2598 -4.57617 120.787 -5.20898 181.166c-1.79199 -7.98926 -3.52734 -15.9912 -5.3584 -23.9717
c-24.9424 -108.696 -52.5293 -229.388 -121.543 -319.773c-28.1797 -36.9023 -69.8564 -76.4053 -119 -77.7715c-59.2012 -1.64258 -115.2 42.8145 -142.488 92.5459z" />
    <glyph glyph-name="U" unicode="&#xdb;" horiz-adv-x="693" 
d="M94.4785 45.2842c-27.7539 50.5801 -35.9697 114.464 -40.7393 171.18c-5.54688 65.7539 -4.08887 131.996 -1.00586 197.82c2.97363 63.4443 7.58105 126.69 13.5762 189.91c3.29004 34.6973 6.52734 69.2988 10.7217 103.9
c3.95312 32.5723 5.88574 65.5039 18.5215 95.9805c12.3594 29.8135 75.5264 40.4727 89.9102 6.28906c24.9736 -59.3506 18.5439 -133.274 17.8936 -196.582c-0.680664 -66 -3.9707 -131.908 -4.94141 -197.899c-0.84375 -57.2383 -0.580078 -114.718 2.42383 -171.89
c2.87207 -54.7344 3.5791 -110.365 15.4551 -164.134c4.51074 -20.4189 9.42578 -42.5068 18.0215 -61.5908c9.56152 -21.2275 21.1562 -25.1895 41.5449 -12.8652c40.21 24.3057 66.2686 68.1084 85.2949 109.658c46.71 102.007 70.5547 214.296 93.4727 323.55
c12.7461 60.7607 24.3193 121.75 34.7988 182.933c4.80078 57.9277 14.125 114.871 20.9199 172.636c2.32324 19.7334 17.625 29.3086 36.1953 32.5986c14.5469 2.57812 44.4658 -0.369141 49.9736 -18.4336c19.7559 -64.8193 20.8584 -130.903 23.4238 -198.143
c2.58301 -67.7441 4.80566 -135.51 7.44141 -203.254c2.63965 -67.8711 7.37891 -135.536 11.6221 -203.311c4.34863 -69.4873 7.77051 -141.786 -2.9502 -210.804c-3.36914 -21.7012 -35.9414 -32.2031 -54.1777 -33.4814
c-18.5918 -1.2998 -50.8916 4.86719 -58.3096 25.6152c-23.458 65.6143 -31.4912 138.879 -35.4883 208.121c-3.47852 60.2598 -4.57617 120.787 -5.20898 181.166c-1.79199 -7.98926 -3.52734 -15.9912 -5.3584 -23.9717
c-24.9424 -108.696 -52.5293 -229.388 -121.543 -319.773c-28.1797 -36.9023 -69.8564 -76.4053 -119 -77.7715c-59.2012 -1.64258 -115.2 42.8145 -142.488 92.5459z" />
    <glyph glyph-name="U" unicode="&#xda;" horiz-adv-x="693" 
d="M94.4785 45.2842c-27.7539 50.5801 -35.9697 114.464 -40.7393 171.18c-5.54688 65.7539 -4.08887 131.996 -1.00586 197.82c2.97363 63.4443 7.58105 126.69 13.5762 189.91c3.29004 34.6973 6.52734 69.2988 10.7217 103.9
c3.95312 32.5723 5.88574 65.5039 18.5215 95.9805c12.3594 29.8135 75.5264 40.4727 89.9102 6.28906c24.9736 -59.3506 18.5439 -133.274 17.8936 -196.582c-0.680664 -66 -3.9707 -131.908 -4.94141 -197.899c-0.84375 -57.2383 -0.580078 -114.718 2.42383 -171.89
c2.87207 -54.7344 3.5791 -110.365 15.4551 -164.134c4.51074 -20.4189 9.42578 -42.5068 18.0215 -61.5908c9.56152 -21.2275 21.1562 -25.1895 41.5449 -12.8652c40.21 24.3057 66.2686 68.1084 85.2949 109.658c46.71 102.007 70.5547 214.296 93.4727 323.55
c12.7461 60.7607 24.3193 121.75 34.7988 182.933c4.80078 57.9277 14.125 114.871 20.9199 172.636c2.32324 19.7334 17.625 29.3086 36.1953 32.5986c14.5469 2.57812 44.4658 -0.369141 49.9736 -18.4336c19.7559 -64.8193 20.8584 -130.903 23.4238 -198.143
c2.58301 -67.7441 4.80566 -135.51 7.44141 -203.254c2.63965 -67.8711 7.37891 -135.536 11.6221 -203.311c4.34863 -69.4873 7.77051 -141.786 -2.9502 -210.804c-3.36914 -21.7012 -35.9414 -32.2031 -54.1777 -33.4814
c-18.5918 -1.2998 -50.8916 4.86719 -58.3096 25.6152c-23.458 65.6143 -31.4912 138.879 -35.4883 208.121c-3.47852 60.2598 -4.57617 120.787 -5.20898 181.166c-1.79199 -7.98926 -3.52734 -15.9912 -5.3584 -23.9717
c-24.9424 -108.696 -52.5293 -229.388 -121.543 -319.773c-28.1797 -36.9023 -69.8564 -76.4053 -119 -77.7715c-59.2012 -1.64258 -115.2 42.8145 -142.488 92.5459z" />
    <glyph glyph-name="V" unicode="V" horiz-adv-x="609" 
d="M110.993 433.024c-10.1328 60.4922 -18.8711 121.219 -29.3643 181.646c-10.6377 61.2617 -28.7861 124.921 -31.5879 187.004c-2.28809 50.6846 85.0664 51.3389 106.008 17.4277c33.8408 -54.7959 48.8799 -124.767 63.5449 -186.827
c14.8018 -62.6357 27.1396 -125.663 38.7783 -188.944c20.0938 -109.258 40.7236 -219.482 67.9062 -327.217c6.38184 -25.29 12.4912 -50.5098 23.6689 -74.1787c4.97656 -10.5371 9.95312 -17.5693 16.7744 -27.0342c1.76562 -2.45117 2.97363 -5.28809 5.27051 -7.30371
l3.8877 1.55566c10.1543 9.58398 19.2812 15.4346 27.2051 27.6533c6.14062 9.46484 11.0029 19.5664 15.3955 29.9404c10.6338 25.1094 18.4385 51.3916 25.5625 77.6826c30.7012 113.33 50.4346 229.77 75.6279 344.395c25.29 115.064 53.9268 229.483 93.3809 340.6
c6.7334 18.9697 51.7656 15.75 44.1494 -5.24023c-49.2969 -135.857 -82.2422 -276.643 -113.058 -417.625c-13.9404 -63.7734 -27.4902 -127.635 -42.1465 -191.246c-13.5498 -58.8145 -26.8662 -121.582 -54.04 -175.935
c-20.7969 -41.6025 -56.5352 -72.2246 -104.365 -75.5537c-71.2227 -4.95898 -110.054 51.4355 -136.582 108.946c-52.7803 114.41 -75.3428 236.858 -96.0166 360.255z" />
    <glyph glyph-name="W" unicode="W" horiz-adv-x="894" 
d="M208.499 -23.5586c-92.7568 37.7021 -129.723 138.54 -145.863 229.264c-17.7354 99.6836 -12.5303 204.949 -9.59668 305.695c1.51953 52.1611 4.85742 104.173 8.57324 156.224c1.8623 26.1328 4.53711 52.209 6.64551 78.3203
c2.12598 26.3438 2.66211 53.9922 13.8359 78.3115c13.374 29.1025 68.2012 36.7803 84.5664 5.91211c13.0889 -24.6797 14.7842 -53.1016 17.248 -80.4648c2.19629 -24.3408 4.54199 -48.7129 5.82031 -73.1201c2.70508 -51.752 4.37012 -103.46 5.16992 -155.265
c1.40527 -91.0664 4.04102 -182.273 12.1484 -273.01c3.70215 -41.4307 7.30371 -82.9229 17.0146 -123.502c7.40918 -30.96 13.8389 -65.9258 31.9297 -92.8535c4.42773 -6.58789 10.6035 -14.5381 16.4844 -19.9531c7.21191 -6.63672 9.27637 -6.10059 16.5762 0.711914
c12.8164 11.9551 21.4775 28.8164 28.6406 44.584c17.3838 38.2686 28.1309 79.9854 37.7588 120.767c15.1836 64.3398 25.4521 129.686 38.3604 194.487c0.0615234 28.1709 3.34277 56.0566 13.708 81.9219c13.2822 33.1299 68.5742 34.4121 86.9424 6.07812
c30.1914 -46.5742 34.0391 -105.986 41.5146 -159.899c6.8252 -49.2178 15.416 -98.3525 25.8828 -146.934c8.27051 -38.3867 12.8115 -80.4854 26.7305 -117.261c6.14941 -16.251 15.2061 -25.6191 26.709 -37.5439c3.2373 0.272461 7.05371 -1.06738 10.3438 -0.99707
c8.40625 0.179688 16.9619 2.86719 24.6084 6.2627c38.1504 16.9531 59.3643 64.041 72.8301 100.829c15.5967 42.6035 26.041 87.3154 34.6406 131.79c36.9902 191.355 49.0908 387.292 70.7617 580.703c2.29297 20.4365 45.9854 23.4668 44.5664 3.11328
c-8.53809 -122.549 -24.1826 -244.852 -39.999 -366.649c-13.708 -105.587 -25.251 -212.948 -55.6748 -315.337c-24.8418 -83.5908 -66.6416 -173.831 -164.651 -184.126c-49.0029 -5.14746 -91.8828 10.458 -123.94 48.542
c-33.1914 39.4326 -51.8662 87.6885 -64.792 137.061c-5.70508 21.7852 -10.1191 43.7412 -13.7686 65.8252c-7.24219 -35.3525 -15.543 -70.4541 -26.1855 -105.016c-11.9814 -38.9141 -27.332 -81.3945 -56.7549 -110.817
c-31.083 -31.0869 -80.415 -29.251 -118.784 -13.6543zM614.584 -1.125c-2.52539 0.953125 -4.50195 -0.351562 0 0z" />
    <glyph glyph-name="X" unicode="X" horiz-adv-x="601" 
d="M70.2666 776.835c-25.6367 -0.90918 -27.6641 26.5596 -2.00488 28.624c30.5254 2.45996 53.1797 -14.7217 70.458 -38.3906c21.166 -28.9971 39.0596 -60.3965 54.9326 -92.5508c36.0107 -72.9619 63.2861 -149.67 92.4805 -225.614
c32.625 59.2891 66.5322 117.876 100.058 176.66c37.7373 66.167 75.6768 134.135 122.396 194.421c13.6152 17.5645 38.8828 22.29 59.5693 17.915c16.8916 -3.57031 37.166 -17.3574 30.8242 -37.4912c-21.9434 -69.668 -56.7334 -136.354 -89.2969 -201.59
c-32.8662 -65.8506 -65.166 -132.014 -99.3672 -197.18c-18.9346 -36.0811 -38.0312 -72.0879 -56.8906 -108.218c28.2412 -54.3701 62.1045 -104.05 96.3721 -155.174c32.9102 -49.0947 71.877 -90.5742 120.247 -124.661c10.3877 -7.32129 13.3877 -18.1172 4.375 -27.833
c-9.92578 -10.6992 -26.207 -11.5781 -39.4893 -8.28418c-74.7891 18.5527 -116.932 87.3066 -152.534 150.435c-20.2393 35.8877 -35.3652 74.2041 -52.9912 111.349c-0.624023 1.31348 -1.27441 2.61328 -1.90234 3.92188
c-4.60742 -9.03906 -9.25391 -18.0605 -13.7949 -27.1299c-15.3281 -30.6221 -30.3711 -61.4238 -44.5752 -92.5859c-15.5527 -34.1221 -27.7188 -71.0947 -48.4932 -102.489c-15.5879 -23.5547 -50.5488 -29.6953 -76.5146 -27.3721
c-18.873 1.69141 -56.6455 17.4238 -53.9531 42.4365c4.04102 37.4824 19.2246 70.4893 34.5527 104.572c15.4688 34.4033 32.3086 68.0781 49.7148 101.533c26.8047 51.5059 54.6553 102.463 82.4834 153.429c-24.6797 60.9668 -46.1436 123.129 -70.2168 184.382
c-13.8086 35.1455 -28.7109 69.918 -46.2314 103.395c-9.30664 17.7793 -19.3252 35.1943 -30.2568 52.0254c-7.33887 11.3008 -23.4004 42.0547 -39.9502 41.4658z" />
    <glyph glyph-name="Y" unicode="Y" horiz-adv-x="605" 
d="M195.039 219.646c-42.0811 6.46484 -72.8916 34.9033 -95.876 69.0039c-47.6592 70.7354 -51.0459 155.828 -48.5684 238.237c1.38379 45.9639 3.1709 91.8311 6.1709 137.716c1.53711 23.5332 3.03027 46.9473 5.89844 70.3613
c3.10938 25.3516 8.03711 46.8291 16.2676 70.9902c5.9248 17.3975 26.6377 25.751 43.5908 26.9365c14.0723 0.988281 42.0674 -3.82129 46.916 -20.6084c7.24707 -25.0791 12.6406 -47.1582 14.4629 -73.2119c1.52832 -21.8027 1.55859 -43.6006 1.81348 -65.4473
c0.513672 -44.584 -0.360352 -89.0625 -1.15137 -133.638c-1.19043 -67.085 -2.5918 -139.08 15.9785 -204.193c4.29102 -15.0391 15.5879 -55.5869 34.3945 -60.1855c24.6396 -6.02637 54.7744 60.9141 62.917 77.5869c31.9834 65.4951 53.0352 136.208 72.3691 206.28
c16.0576 58.2002 29.6904 117.011 41.1143 176.273c1.27832 25.0654 5.6709 49.5293 18.1133 72.6533c11.5381 21.4375 56.0693 22.3291 70.9326 4.95801c33.4814 -39.125 37.3467 -92.8711 43.3555 -142.282c5.62207 -46.249 8.72754 -92.375 10.3262 -138.936
c5.47656 -159.205 -1.75684 -320.932 -80.0508 -463.574c-35.8574 -65.3242 -101.467 -112.961 -178.896 -97.3867c-74.0508 14.8936 -116.716 73.7568 -125.268 146.003c-3.14941 26.6387 50.4033 31.2148 59.7188 9.81641
c14.0244 -32.2207 34.4961 -71.1045 67.5996 -87.1885c23.3311 -11.332 38.457 -0.0878906 53.2451 19.7119c42.9639 57.5195 53.3379 143.223 57.7734 212.842c5.48145 86.0547 6.97949 172.496 6.02246 258.722c-0.0351562 3.45215 -0.105469 6.9043 -0.149414 10.3613
c-5.02441 -18.4863 -10.2119 -36.9287 -15.7109 -55.2832c-11.9375 -39.8369 -25.0527 -79.4014 -41.624 -117.578c-15.1875 -35.001 -32.2461 -74.4199 -57.1318 -103.641c-27.2578 -32.0049 -61.1562 -51.9717 -104.555 -45.2998z" />
    <glyph glyph-name="Y" unicode="&#x178;" horiz-adv-x="605" 
d="M195.039 219.646c-42.0811 6.46484 -72.8916 34.9033 -95.876 69.0039c-47.6592 70.7354 -51.0459 155.828 -48.5684 238.237c1.38379 45.9639 3.1709 91.8311 6.1709 137.716c1.53711 23.5332 3.03027 46.9473 5.89844 70.3613
c3.10938 25.3516 8.03711 46.8291 16.2676 70.9902c5.9248 17.3975 26.6377 25.751 43.5908 26.9365c14.0723 0.988281 42.0674 -3.82129 46.916 -20.6084c7.24707 -25.0791 12.6406 -47.1582 14.4629 -73.2119c1.52832 -21.8027 1.55859 -43.6006 1.81348 -65.4473
c0.513672 -44.584 -0.360352 -89.0625 -1.15137 -133.638c-1.19043 -67.085 -2.5918 -139.08 15.9785 -204.193c4.29102 -15.0391 15.5879 -55.5869 34.3945 -60.1855c24.6396 -6.02637 54.7744 60.9141 62.917 77.5869c31.9834 65.4951 53.0352 136.208 72.3691 206.28
c16.0576 58.2002 29.6904 117.011 41.1143 176.273c1.27832 25.0654 5.6709 49.5293 18.1133 72.6533c11.5381 21.4375 56.0693 22.3291 70.9326 4.95801c33.4814 -39.125 37.3467 -92.8711 43.3555 -142.282c5.62207 -46.249 8.72754 -92.375 10.3262 -138.936
c5.47656 -159.205 -1.75684 -320.932 -80.0508 -463.574c-35.8574 -65.3242 -101.467 -112.961 -178.896 -97.3867c-74.0508 14.8936 -116.716 73.7568 -125.268 146.003c-3.14941 26.6387 50.4033 31.2148 59.7188 9.81641
c14.0244 -32.2207 34.4961 -71.1045 67.5996 -87.1885c23.3311 -11.332 38.457 -0.0878906 53.2451 19.7119c42.9639 57.5195 53.3379 143.223 57.7734 212.842c5.48145 86.0547 6.97949 172.496 6.02246 258.722c-0.0351562 3.45215 -0.105469 6.9043 -0.149414 10.3613
c-5.02441 -18.4863 -10.2119 -36.9287 -15.7109 -55.2832c-11.9375 -39.8369 -25.0527 -79.4014 -41.624 -117.578c-15.1875 -35.001 -32.2461 -74.4199 -57.1318 -103.641c-27.2578 -32.0049 -61.1562 -51.9717 -104.555 -45.2998z" />
    <glyph glyph-name="Y" unicode="&#xdd;" horiz-adv-x="605" 
d="M195.039 219.646c-42.0811 6.46484 -72.8916 34.9033 -95.876 69.0039c-47.6592 70.7354 -51.0459 155.828 -48.5684 238.237c1.38379 45.9639 3.1709 91.8311 6.1709 137.716c1.53711 23.5332 3.03027 46.9473 5.89844 70.3613
c3.10938 25.3516 8.03711 46.8291 16.2676 70.9902c5.9248 17.3975 26.6377 25.751 43.5908 26.9365c14.0723 0.988281 42.0674 -3.82129 46.916 -20.6084c7.24707 -25.0791 12.6406 -47.1582 14.4629 -73.2119c1.52832 -21.8027 1.55859 -43.6006 1.81348 -65.4473
c0.513672 -44.584 -0.360352 -89.0625 -1.15137 -133.638c-1.19043 -67.085 -2.5918 -139.08 15.9785 -204.193c4.29102 -15.0391 15.5879 -55.5869 34.3945 -60.1855c24.6396 -6.02637 54.7744 60.9141 62.917 77.5869c31.9834 65.4951 53.0352 136.208 72.3691 206.28
c16.0576 58.2002 29.6904 117.011 41.1143 176.273c1.27832 25.0654 5.6709 49.5293 18.1133 72.6533c11.5381 21.4375 56.0693 22.3291 70.9326 4.95801c33.4814 -39.125 37.3467 -92.8711 43.3555 -142.282c5.62207 -46.249 8.72754 -92.375 10.3262 -138.936
c5.47656 -159.205 -1.75684 -320.932 -80.0508 -463.574c-35.8574 -65.3242 -101.467 -112.961 -178.896 -97.3867c-74.0508 14.8936 -116.716 73.7568 -125.268 146.003c-3.14941 26.6387 50.4033 31.2148 59.7188 9.81641
c14.0244 -32.2207 34.4961 -71.1045 67.5996 -87.1885c23.3311 -11.332 38.457 -0.0878906 53.2451 19.7119c42.9639 57.5195 53.3379 143.223 57.7734 212.842c5.48145 86.0547 6.97949 172.496 6.02246 258.722c-0.0351562 3.45215 -0.105469 6.9043 -0.149414 10.3613
c-5.02441 -18.4863 -10.2119 -36.9287 -15.7109 -55.2832c-11.9375 -39.8369 -25.0527 -79.4014 -41.624 -117.578c-15.1875 -35.001 -32.2461 -74.4199 -57.1318 -103.641c-27.2578 -32.0049 -61.1562 -51.9717 -104.555 -45.2998z" />
    <glyph glyph-name="Z" unicode="Z" horiz-adv-x="443" 
d="M93.5195 -10.7197c-74.209 59.0693 -38.2871 170.478 -3.91895 241.595c24.4639 50.6064 50.3643 100.51 75.2549 150.9c-11.4639 -0.246094 -22.9316 -0.553711 -34.4082 -1.01074c-28.667 -1.13281 -31.0303 31.0566 -2.24023 32.0273
c17.4453 0.583984 34.9395 1.05859 52.4551 1.39648c10.4404 21.7324 20.6123 43.5967 30.293 65.7021c18.4824 42.2129 37.1396 84.5752 51.5459 128.391c13.1279 39.9248 27.2227 82.8047 28.9883 125.127c0.636719 15.2666 0.492188 33.6611 -4.54102 48.2256
c-6.69824 19.3828 -21.2803 22.8135 -40.3379 24.2188c-34.4033 2.53906 -77.8418 1.59473 -103.25 -25.2764c-7.64648 -8.08594 -19.6943 -11.582 -30.5166 -7.75195c-7.70801 2.73145 -17.2568 12.6094 -9.59668 20.7607c28.6367 30.4727 67.5645 41.7959 108.49 43.9697
c40.6934 2.16113 86.6221 -0.913086 121.324 -24.6875c72.5928 -49.7363 60.6328 -156.166 44.1406 -230.547c-12.9521 -58.4199 -32.374 -114.802 -55.2793 -169.84c11.5996 -0.588867 23.1904 -1.26562 34.75 -2.14355c8.72754 -0.65918 19.457 -7.53711 16.6553 -17.5771
c-3.00879 -10.7871 -17.0635 -12.7061 -26.291 -12.4824c-12.8691 0.311523 -25.7207 0.610352 -38.5723 0.886719c-10.1895 -23.041 -20.8838 -45.8623 -31.8906 -68.5166c-20.4932 -42.1689 -42.8398 -83.6484 -61.0977 -126.858
c-16.1455 -38.2021 -34.8164 -80.9902 -34.9395 -123.189c-0.0966797 -34.8643 12.3154 -49.3096 47.0303 -53.0908c47.2236 -5.14355 93.4814 -5.85059 140.613 0.246094c25.5713 3.30762 36.4111 -27.1162 9.03906 -33.4932
c-49.666 -11.5684 -102.244 -21.6924 -153.355 -21.126c-44.9404 0.500977 -93.9346 5.16504 -130.345 34.1445z" />
    <glyph glyph-name="bracketleft" unicode="[" horiz-adv-x="363" 
d="M304.273 -123.713c14.252 -14.9775 9.23242 -34.5635 -5.4502 -47.0547c-41.3301 -35.1982 -102.846 -34.6318 -150.184 -12.7637c-46.4199 21.4424 -73.0234 59.4258 -85.2949 108.144c-10.0889 40.0469 -9.96582 82.1455 -11.2217 123.198
c-1.41406 46.0957 -1.91504 92.2129 -2.08594 138.33c-0.342773 93.2578 1.80957 186.494 5.08203 279.69c3.29395 93.8203 9.05176 191.689 27.8721 283.814c7.54102 36.9287 16.3428 87.6533 49.2969 110.892c29.959 21.1221 63.4268 20.7266 97.1191 10.4404
c22.417 -6.84277 3.20117 -28.6758 -13.3135 -25.6582c-5.24023 0.957031 -22.9404 6.22754 -27.8467 2.87207c-2.85449 -1.9541 -2.39355 -9.47754 -2.57812 -14.9766c-0.580078 -17.5293 -0.610352 -35.1377 -0.830078 -52.6846
c-0.522461 -42.1602 1.21289 -84.5615 2.52637 -126.704c4.74805 -152.438 1.57227 -305.415 2.12988 -457.932c0.267578 -72.5801 -0.922852 -146.289 6.03418 -218.605c1.42773 -14.832 3.23242 -29.9062 8.15625 -43.9834
c4.33984 -12.4209 10.8135 -25.6455 16.4355 -32.1016c2.15625 -2.47266 4.5498 -4.93652 7.04883 -7.13281c0.416992 -0.293945 0.944336 -0.671875 1.74805 -1.25195c1.78711 -1.29102 3.77246 -2.40234 5.75293 -3.45605
c0.311523 -0.126953 0.658203 -0.267578 1.07129 -0.43457c0.474609 -0.193359 0.882812 -0.360352 1.2959 -0.527344c1.4541 0.513672 3.10156 1.0625 3.26367 1.11523c19.8564 6.54395 49.0732 2.41992 63.9717 -13.2295z" />
    <glyph glyph-name="backslash" unicode="\" horiz-adv-x="528" 
d="M477.621 -128.395c7.45312 -28.0479 -34.9424 -46.1719 -54.8828 -49.4355c-23.7568 -3.88672 -65.3721 0.680664 -75.7725 27.9561c-57.7822 151.572 -106.605 306.192 -158.424 459.864c-25.3643 75.2109 -49.6436 150.9 -73.9932 226.449
c-11.332 35.1592 -24.5088 69.5762 -36.6094 104.445c-11.3447 32.6816 -27.9951 66.791 -27.9385 101.713c0.0302734 20.1377 31.3018 25.2764 45.0098 16.3389c64.5596 -42.0898 99.2041 -125.619 130.955 -193.122c33.9551 -72.1797 63.9932 -147.096 92.6074 -221.538
c59.7461 -155.433 116.26 -311.63 159.048 -472.671z" />
    <glyph glyph-name="bracketright" unicode="]" horiz-adv-x="377" 
d="M280.251 762.229c51.0801 -179.15 48.7783 -368.088 45.0059 -552.899c-1.88379 -92.3838 -6.46875 -190.943 -32.1631 -280.195c-12.3066 -42.7393 -34.7725 -79.0625 -74.2754 -101.291c-41.4531 -23.3262 -92.0859 -22.751 -136.986 -11.165
c-14.0547 3.62305 -26.7129 17.4932 -22.3818 32.5273c4.875 16.9316 25.4434 22.7686 40.4424 24.9912c30.8594 4.57617 40.8955 10.0928 50.2725 39.3223c11.2217 34.9746 12.4648 73.3086 15.5967 109.974c6.68066 78.123 8.37207 157.023 9.83496 235.4
c1.43652 77.1562 4.62988 154.309 4.30469 231.487c-0.325195 77.6699 -1.69141 155.577 -9.06543 232.948c-1.80957 18.9785 -3.83887 37.8203 -5.30566 56.8164c-0.961914 12.3906 -1.49805 25.9355 -9.11426 36.3584c-16.6816 22.8213 -58.9775 22.834 -83.7139 20.4443
c-22.751 -2.19629 -33.3008 25.0391 -8.14746 30.2002c49.209 10.0977 92.4932 23.1553 140.851 0.307617c42.2256 -19.9492 62.6006 -62.2764 74.8457 -105.227z" />
    <glyph glyph-name="asciicircum" unicode="^" 
d="M255.878 551.646c5.40625 -24.4688 -32.126 -38.2031 -49.3516 -39.4062c-23.7129 -1.66016 -48.2695 7.73438 -54.3613 32.1543c-2.96875 11.8936 -6.08301 29.1943 -11.8936 44.5137c-3.06543 -4.47949 -6.07812 -8.99023 -9.03418 -13.5576
c-11.0371 -17.041 -20.3438 -35.0703 -36.5635 -47.7812c-10.9102 -8.55176 -30.46 -8.27051 -38.2432 4.23828c-16.4043 26.3701 2.3457 61.3535 14.4326 85.9453c14.9424 30.3975 31.2588 55.6348 68.377 59.0518c69.2686 6.37695 104.278 -69.2197 116.638 -125.158z" />
    <glyph glyph-name="underscore" unicode="_" horiz-adv-x="500" 
d="M412.857 18.3457c17.8359 -1.32617 38.376 -13.8467 36.5713 -33.6113c-1.89258 -20.6865 -27.002 -30.1777 -44.707 -31.7109c-50.5801 -4.38379 -101.463 -4.29199 -152.139 -7.58203c-50.7109 -3.29395 -101.15 -9.0918 -151.752 -13.5498
c-18.7451 -1.65625 -44.2324 5.6875 -49.9463 25.8301c-5.40234 19.0439 14.96 36.4629 32.3574 39.3701c54.4932 9.10059 109.347 14.459 164.454 18.2363c54.9014 3.76367 110.202 7.10645 165.161 3.01758z" />
    <glyph glyph-name="grave" unicode="`" horiz-adv-x="204" 
d="M148.442 598.892c-1.50684 -26.335 -0.884766 -52.6182 1.28906 -78.8877c3.79883 -45.8975 -96.2363 -52.71 -98.7881 -6.90918c-1.7793 31.957 -1.08496 63.8135 2.49414 95.6299c3.63672 32.2822 6.03906 65.1006 35.6289 83.5254
c20.5068 12.7637 58.5029 5.56934 63.8916 -20.2695c4.69922 -22.54 -3.20215 -50.1836 -4.51562 -73.0889z" />
    <glyph glyph-name="a" unicode="a" horiz-adv-x="515" 
d="M67.501 5.83398c-85.9492 40.0469 -100.918 150.305 -90.6934 234.339c11.1426 91.5225 44.4658 183.309 136.92 219.979c53.2236 21.1084 121.618 19.2158 161.376 -17.8711c15.8115 7.17188 34.7148 10.0576 47.5752 9.76758
c22.9004 -0.513672 66.7773 -13.1934 65.4512 -44.1621c-3.13574 -73.1416 -12.5742 -145.576 -12.1924 -218.938c0.179688 -34.9746 0.803711 -69.9443 2.88574 -104.861c0.957031 -16.0664 1.18945 -54.6816 19.7637 -62.9121
c1.71289 -0.759766 4.31738 0.170898 9.92578 3.75879c6.70703 4.29102 12.2061 11.0811 17.1738 17.1602c14.6172 17.8848 26.4756 38.1504 36.9902 58.6523c19.8916 38.7871 37.1221 80.5869 46.7588 123.204c3.90918 17.2832 43.3154 15.3594 39.332 -4.66895
c-10.3525 -52.0645 -31.4961 -103.241 -56.9746 -149.622c-11.8232 -21.5254 -25.3818 -43.1211 -43.6924 -59.7891c-18.5527 -16.8877 -38.3965 -20.0898 -62.4297 -24.0781c-38.7783 -6.43848 -77.8291 8.2793 -102.403 39.0156
c-25.1006 31.3994 -32.8047 72.5752 -38.7383 111.647c-2.72266 -11.1602 -5.59082 -22.2852 -8.6875 -33.3574c-9.89941 -35.4004 -22.623 -71.7588 -55.4277 -92.1387c-31.9658 -19.8564 -79.2559 -20.8096 -112.913 -5.125zM112.551 179.677
c-0.983398 -32.6377 1.35059 -66.2617 6.24316 -98.5303c1.81348 -11.9775 5.51562 -24.5957 11.3311 -35.251c2.26172 -4.14648 4.98438 -9.22852 8.7793 -12.2412c6.19727 -4.91504 3.22363 -3.03125 8.6875 -0.720703c27.165 11.499 36.3535 50.1895 43.7012 75.4482
c9.75977 33.5518 17.6436 67.626 24.4209 101.894c9.06055 45.8145 16.2461 91.9893 23.0625 138.203c0.509766 5.54688 1.07227 11.0762 1.67871 16.5928c-0.694336 0.610352 -1.35352 1.24316 -1.91992 1.91992c-9.57031 11.4502 -20.4541 25.9131 -32.9189 34.3594
c-4.28223 2.90332 -7.40527 3.9043 -11.9951 5.57324c0.474609 -0.170898 -2.41992 -0.583984 -2.54688 -0.610352c-0.799805 -0.162109 -1.33984 -0.267578 -1.75684 -0.341797c-1.63867 -0.759766 -3.97949 -1.84473 -3.94922 -1.82324
c-1.625 -1.22559 -6.93066 -5.46387 -8.93359 -7.51953c-8.54688 -8.77539 -15.9258 -21.5693 -21.0957 -33.1338c-25.0791 -56.1006 -40.9346 -122.426 -42.7881 -183.818z" />
    <glyph glyph-name="a" unicode="&#xe5;" horiz-adv-x="515" 
d="M67.501 5.83398c-85.9492 40.0469 -100.918 150.305 -90.6934 234.339c11.1426 91.5225 44.4658 183.309 136.92 219.979c53.2236 21.1084 121.618 19.2158 161.376 -17.8711c15.8115 7.17188 34.7148 10.0576 47.5752 9.76758
c22.9004 -0.513672 66.7773 -13.1934 65.4512 -44.1621c-3.13574 -73.1416 -12.5742 -145.576 -12.1924 -218.938c0.179688 -34.9746 0.803711 -69.9443 2.88574 -104.861c0.957031 -16.0664 1.18945 -54.6816 19.7637 -62.9121
c1.71289 -0.759766 4.31738 0.170898 9.92578 3.75879c6.70703 4.29102 12.2061 11.0811 17.1738 17.1602c14.6172 17.8848 26.4756 38.1504 36.9902 58.6523c19.8916 38.7871 37.1221 80.5869 46.7588 123.204c3.90918 17.2832 43.3154 15.3594 39.332 -4.66895
c-10.3525 -52.0645 -31.4961 -103.241 -56.9746 -149.622c-11.8232 -21.5254 -25.3818 -43.1211 -43.6924 -59.7891c-18.5527 -16.8877 -38.3965 -20.0898 -62.4297 -24.0781c-38.7783 -6.43848 -77.8291 8.2793 -102.403 39.0156
c-25.1006 31.3994 -32.8047 72.5752 -38.7383 111.647c-2.72266 -11.1602 -5.59082 -22.2852 -8.6875 -33.3574c-9.89941 -35.4004 -22.623 -71.7588 -55.4277 -92.1387c-31.9658 -19.8564 -79.2559 -20.8096 -112.913 -5.125zM112.551 179.677
c-0.983398 -32.6377 1.35059 -66.2617 6.24316 -98.5303c1.81348 -11.9775 5.51562 -24.5957 11.3311 -35.251c2.26172 -4.14648 4.98438 -9.22852 8.7793 -12.2412c6.19727 -4.91504 3.22363 -3.03125 8.6875 -0.720703c27.165 11.499 36.3535 50.1895 43.7012 75.4482
c9.75977 33.5518 17.6436 67.626 24.4209 101.894c9.06055 45.8145 16.2461 91.9893 23.0625 138.203c0.509766 5.54688 1.07227 11.0762 1.67871 16.5928c-0.694336 0.610352 -1.35352 1.24316 -1.91992 1.91992c-9.57031 11.4502 -20.4541 25.9131 -32.9189 34.3594
c-4.28223 2.90332 -7.40527 3.9043 -11.9951 5.57324c0.474609 -0.170898 -2.41992 -0.583984 -2.54688 -0.610352c-0.799805 -0.162109 -1.33984 -0.267578 -1.75684 -0.341797c-1.63867 -0.759766 -3.97949 -1.84473 -3.94922 -1.82324
c-1.625 -1.22559 -6.93066 -5.46387 -8.93359 -7.51953c-8.54688 -8.77539 -15.9258 -21.5693 -21.0957 -33.1338c-25.0791 -56.1006 -40.9346 -122.426 -42.7881 -183.818z" />
    <glyph glyph-name="a" unicode="&#xe4;" horiz-adv-x="515" 
d="M67.501 5.83398c-85.9492 40.0469 -100.918 150.305 -90.6934 234.339c11.1426 91.5225 44.4658 183.309 136.92 219.979c53.2236 21.1084 121.618 19.2158 161.376 -17.8711c15.8115 7.17188 34.7148 10.0576 47.5752 9.76758
c22.9004 -0.513672 66.7773 -13.1934 65.4512 -44.1621c-3.13574 -73.1416 -12.5742 -145.576 -12.1924 -218.938c0.179688 -34.9746 0.803711 -69.9443 2.88574 -104.861c0.957031 -16.0664 1.18945 -54.6816 19.7637 -62.9121
c1.71289 -0.759766 4.31738 0.170898 9.92578 3.75879c6.70703 4.29102 12.2061 11.0811 17.1738 17.1602c14.6172 17.8848 26.4756 38.1504 36.9902 58.6523c19.8916 38.7871 37.1221 80.5869 46.7588 123.204c3.90918 17.2832 43.3154 15.3594 39.332 -4.66895
c-10.3525 -52.0645 -31.4961 -103.241 -56.9746 -149.622c-11.8232 -21.5254 -25.3818 -43.1211 -43.6924 -59.7891c-18.5527 -16.8877 -38.3965 -20.0898 -62.4297 -24.0781c-38.7783 -6.43848 -77.8291 8.2793 -102.403 39.0156
c-25.1006 31.3994 -32.8047 72.5752 -38.7383 111.647c-2.72266 -11.1602 -5.59082 -22.2852 -8.6875 -33.3574c-9.89941 -35.4004 -22.623 -71.7588 -55.4277 -92.1387c-31.9658 -19.8564 -79.2559 -20.8096 -112.913 -5.125zM112.551 179.677
c-0.983398 -32.6377 1.35059 -66.2617 6.24316 -98.5303c1.81348 -11.9775 5.51562 -24.5957 11.3311 -35.251c2.26172 -4.14648 4.98438 -9.22852 8.7793 -12.2412c6.19727 -4.91504 3.22363 -3.03125 8.6875 -0.720703c27.165 11.499 36.3535 50.1895 43.7012 75.4482
c9.75977 33.5518 17.6436 67.626 24.4209 101.894c9.06055 45.8145 16.2461 91.9893 23.0625 138.203c0.509766 5.54688 1.07227 11.0762 1.67871 16.5928c-0.694336 0.610352 -1.35352 1.24316 -1.91992 1.91992c-9.57031 11.4502 -20.4541 25.9131 -32.9189 34.3594
c-4.28223 2.90332 -7.40527 3.9043 -11.9951 5.57324c0.474609 -0.170898 -2.41992 -0.583984 -2.54688 -0.610352c-0.799805 -0.162109 -1.33984 -0.267578 -1.75684 -0.341797c-1.63867 -0.759766 -3.97949 -1.84473 -3.94922 -1.82324
c-1.625 -1.22559 -6.93066 -5.46387 -8.93359 -7.51953c-8.54688 -8.77539 -15.9258 -21.5693 -21.0957 -33.1338c-25.0791 -56.1006 -40.9346 -122.426 -42.7881 -183.818z" />
    <glyph glyph-name="a" unicode="&#xe3;" horiz-adv-x="515" 
d="M67.501 5.83398c-85.9492 40.0469 -100.918 150.305 -90.6934 234.339c11.1426 91.5225 44.4658 183.309 136.92 219.979c53.2236 21.1084 121.618 19.2158 161.376 -17.8711c15.8115 7.17188 34.7148 10.0576 47.5752 9.76758
c22.9004 -0.513672 66.7773 -13.1934 65.4512 -44.1621c-3.13574 -73.1416 -12.5742 -145.576 -12.1924 -218.938c0.179688 -34.9746 0.803711 -69.9443 2.88574 -104.861c0.957031 -16.0664 1.18945 -54.6816 19.7637 -62.9121
c1.71289 -0.759766 4.31738 0.170898 9.92578 3.75879c6.70703 4.29102 12.2061 11.0811 17.1738 17.1602c14.6172 17.8848 26.4756 38.1504 36.9902 58.6523c19.8916 38.7871 37.1221 80.5869 46.7588 123.204c3.90918 17.2832 43.3154 15.3594 39.332 -4.66895
c-10.3525 -52.0645 -31.4961 -103.241 -56.9746 -149.622c-11.8232 -21.5254 -25.3818 -43.1211 -43.6924 -59.7891c-18.5527 -16.8877 -38.3965 -20.0898 -62.4297 -24.0781c-38.7783 -6.43848 -77.8291 8.2793 -102.403 39.0156
c-25.1006 31.3994 -32.8047 72.5752 -38.7383 111.647c-2.72266 -11.1602 -5.59082 -22.2852 -8.6875 -33.3574c-9.89941 -35.4004 -22.623 -71.7588 -55.4277 -92.1387c-31.9658 -19.8564 -79.2559 -20.8096 -112.913 -5.125zM112.551 179.677
c-0.983398 -32.6377 1.35059 -66.2617 6.24316 -98.5303c1.81348 -11.9775 5.51562 -24.5957 11.3311 -35.251c2.26172 -4.14648 4.98438 -9.22852 8.7793 -12.2412c6.19727 -4.91504 3.22363 -3.03125 8.6875 -0.720703c27.165 11.499 36.3535 50.1895 43.7012 75.4482
c9.75977 33.5518 17.6436 67.626 24.4209 101.894c9.06055 45.8145 16.2461 91.9893 23.0625 138.203c0.509766 5.54688 1.07227 11.0762 1.67871 16.5928c-0.694336 0.610352 -1.35352 1.24316 -1.91992 1.91992c-9.57031 11.4502 -20.4541 25.9131 -32.9189 34.3594
c-4.28223 2.90332 -7.40527 3.9043 -11.9951 5.57324c0.474609 -0.170898 -2.41992 -0.583984 -2.54688 -0.610352c-0.799805 -0.162109 -1.33984 -0.267578 -1.75684 -0.341797c-1.63867 -0.759766 -3.97949 -1.84473 -3.94922 -1.82324
c-1.625 -1.22559 -6.93066 -5.46387 -8.93359 -7.51953c-8.54688 -8.77539 -15.9258 -21.5693 -21.0957 -33.1338c-25.0791 -56.1006 -40.9346 -122.426 -42.7881 -183.818z" />
    <glyph glyph-name="a" unicode="&#xe2;" horiz-adv-x="515" 
d="M67.501 5.83398c-85.9492 40.0469 -100.918 150.305 -90.6934 234.339c11.1426 91.5225 44.4658 183.309 136.92 219.979c53.2236 21.1084 121.618 19.2158 161.376 -17.8711c15.8115 7.17188 34.7148 10.0576 47.5752 9.76758
c22.9004 -0.513672 66.7773 -13.1934 65.4512 -44.1621c-3.13574 -73.1416 -12.5742 -145.576 -12.1924 -218.938c0.179688 -34.9746 0.803711 -69.9443 2.88574 -104.861c0.957031 -16.0664 1.18945 -54.6816 19.7637 -62.9121
c1.71289 -0.759766 4.31738 0.170898 9.92578 3.75879c6.70703 4.29102 12.2061 11.0811 17.1738 17.1602c14.6172 17.8848 26.4756 38.1504 36.9902 58.6523c19.8916 38.7871 37.1221 80.5869 46.7588 123.204c3.90918 17.2832 43.3154 15.3594 39.332 -4.66895
c-10.3525 -52.0645 -31.4961 -103.241 -56.9746 -149.622c-11.8232 -21.5254 -25.3818 -43.1211 -43.6924 -59.7891c-18.5527 -16.8877 -38.3965 -20.0898 -62.4297 -24.0781c-38.7783 -6.43848 -77.8291 8.2793 -102.403 39.0156
c-25.1006 31.3994 -32.8047 72.5752 -38.7383 111.647c-2.72266 -11.1602 -5.59082 -22.2852 -8.6875 -33.3574c-9.89941 -35.4004 -22.623 -71.7588 -55.4277 -92.1387c-31.9658 -19.8564 -79.2559 -20.8096 -112.913 -5.125zM112.551 179.677
c-0.983398 -32.6377 1.35059 -66.2617 6.24316 -98.5303c1.81348 -11.9775 5.51562 -24.5957 11.3311 -35.251c2.26172 -4.14648 4.98438 -9.22852 8.7793 -12.2412c6.19727 -4.91504 3.22363 -3.03125 8.6875 -0.720703c27.165 11.499 36.3535 50.1895 43.7012 75.4482
c9.75977 33.5518 17.6436 67.626 24.4209 101.894c9.06055 45.8145 16.2461 91.9893 23.0625 138.203c0.509766 5.54688 1.07227 11.0762 1.67871 16.5928c-0.694336 0.610352 -1.35352 1.24316 -1.91992 1.91992c-9.57031 11.4502 -20.4541 25.9131 -32.9189 34.3594
c-4.28223 2.90332 -7.40527 3.9043 -11.9951 5.57324c0.474609 -0.170898 -2.41992 -0.583984 -2.54688 -0.610352c-0.799805 -0.162109 -1.33984 -0.267578 -1.75684 -0.341797c-1.63867 -0.759766 -3.97949 -1.84473 -3.94922 -1.82324
c-1.625 -1.22559 -6.93066 -5.46387 -8.93359 -7.51953c-8.54688 -8.77539 -15.9258 -21.5693 -21.0957 -33.1338c-25.0791 -56.1006 -40.9346 -122.426 -42.7881 -183.818z" />
    <glyph glyph-name="a" unicode="&#xe1;" horiz-adv-x="515" 
d="M67.501 5.83398c-85.9492 40.0469 -100.918 150.305 -90.6934 234.339c11.1426 91.5225 44.4658 183.309 136.92 219.979c53.2236 21.1084 121.618 19.2158 161.376 -17.8711c15.8115 7.17188 34.7148 10.0576 47.5752 9.76758
c22.9004 -0.513672 66.7773 -13.1934 65.4512 -44.1621c-3.13574 -73.1416 -12.5742 -145.576 -12.1924 -218.938c0.179688 -34.9746 0.803711 -69.9443 2.88574 -104.861c0.957031 -16.0664 1.18945 -54.6816 19.7637 -62.9121
c1.71289 -0.759766 4.31738 0.170898 9.92578 3.75879c6.70703 4.29102 12.2061 11.0811 17.1738 17.1602c14.6172 17.8848 26.4756 38.1504 36.9902 58.6523c19.8916 38.7871 37.1221 80.5869 46.7588 123.204c3.90918 17.2832 43.3154 15.3594 39.332 -4.66895
c-10.3525 -52.0645 -31.4961 -103.241 -56.9746 -149.622c-11.8232 -21.5254 -25.3818 -43.1211 -43.6924 -59.7891c-18.5527 -16.8877 -38.3965 -20.0898 -62.4297 -24.0781c-38.7783 -6.43848 -77.8291 8.2793 -102.403 39.0156
c-25.1006 31.3994 -32.8047 72.5752 -38.7383 111.647c-2.72266 -11.1602 -5.59082 -22.2852 -8.6875 -33.3574c-9.89941 -35.4004 -22.623 -71.7588 -55.4277 -92.1387c-31.9658 -19.8564 -79.2559 -20.8096 -112.913 -5.125zM112.551 179.677
c-0.983398 -32.6377 1.35059 -66.2617 6.24316 -98.5303c1.81348 -11.9775 5.51562 -24.5957 11.3311 -35.251c2.26172 -4.14648 4.98438 -9.22852 8.7793 -12.2412c6.19727 -4.91504 3.22363 -3.03125 8.6875 -0.720703c27.165 11.499 36.3535 50.1895 43.7012 75.4482
c9.75977 33.5518 17.6436 67.626 24.4209 101.894c9.06055 45.8145 16.2461 91.9893 23.0625 138.203c0.509766 5.54688 1.07227 11.0762 1.67871 16.5928c-0.694336 0.610352 -1.35352 1.24316 -1.91992 1.91992c-9.57031 11.4502 -20.4541 25.9131 -32.9189 34.3594
c-4.28223 2.90332 -7.40527 3.9043 -11.9951 5.57324c0.474609 -0.170898 -2.41992 -0.583984 -2.54688 -0.610352c-0.799805 -0.162109 -1.33984 -0.267578 -1.75684 -0.341797c-1.63867 -0.759766 -3.97949 -1.84473 -3.94922 -1.82324
c-1.625 -1.22559 -6.93066 -5.46387 -8.93359 -7.51953c-8.54688 -8.77539 -15.9258 -21.5693 -21.0957 -33.1338c-25.0791 -56.1006 -40.9346 -122.426 -42.7881 -183.818z" />
    <glyph glyph-name="b" unicode="b" horiz-adv-x="529" 
d="M-9.88086 189.398c-4.9502 63.2549 -8.85254 126.783 -10.0381 190.228c-2.56543 137.895 -0.993164 276.663 9.2627 414.22c2.30566 30.916 31.8955 46.3057 60.4971 48.3037c23.0762 1.6123 67.2393 -8.83203 66.6328 -39.4141
c-2.74023 -138.119 -10.1934 -275.943 -8.52441 -414.163c0.478516 -39.5684 1.02344 -79.1152 1.9541 -118.653c11.8896 55.2393 28.584 108.678 57.5107 156.684c12.1484 20.1641 28.7686 38.0879 50.8389 47.2451c24.3584 10.1104 48.6377 5.23535 73.4668 0.0791016
c60.2207 -12.5127 95.709 -78.2539 111.89 -132.853c14.793 -49.916 19.5098 -101.058 16.7734 -152.441c37.9395 9.69336 75.584 20.4102 111.92 35.2246c9.20996 3.75488 23.9238 5.21289 31.3027 -3.43066c6.62305 -7.76074 2.50293 -18.1787 -6.61523 -21.8945
c-45.0986 -18.3857 -92.1387 -30.5957 -139.314 -42.3096c-0.135742 -1.20312 -0.25 -2.41113 -0.390625 -3.61426c-7.15918 -60.6289 -23.2256 -125.781 -75.9531 -162.974c-32.418 -22.8652 -76.2822 -36.0723 -115.351 -24.2617
c-4.98535 1.51074 -10.041 3.35938 -14.6396 5.8457c-3.19727 1.73047 -14.3574 8.12988 -10.7949 6.40332c-9.28906 4.77441 -18.4863 9.31152 -26.9277 15.7812c-19.8828 15.2275 -37.4248 36.3848 -34.8994 62.874c2.37207 24.873 21.0693 42.9951 41.501 55.1172
c28.8828 17.1377 61.1562 29.3916 94.0615 39.4102c16.1055 72.6982 22.4082 149.837 10.3867 221.775c-3.63184 21.75 -10.6592 39.5732 -20.959 58.7715c-4.57227 8.52539 -5.47266 17.7314 -17.2344 17.7617c-9.85547 0.0263672 -19.0479 -8.05078 -25.4512 -14.8496
c-29.7217 -31.5703 -43.9648 -81.0693 -55.7969 -121.749c-23.3662 -80.3359 -32.7041 -163.791 -50.3779 -245.428c-1.1416 -25.3906 -3.91699 -50.5312 -9.55176 -75c-6.56641 -28.5049 -64.2832 -30.6963 -75.6543 -5.29199
c-27.8457 62.2275 -34.2314 134.943 -39.5244 202.604zM212.802 19.8545c0.373047 -0.381836 1.57227 0.0341797 3.14941 0.855469zM256.529 84.0137c2.86816 9.23242 5.57422 18.626 8.16113 28.1045c-6.80762 -2.61816 -13.5801 -5.34082 -20.2998 -8.23047
c-19.1455 -8.24414 -51.6338 -18.9873 -56.7422 -42.4189c-2.49512 -11.4463 3.0957 -22.1016 11.6387 -29.5947c5.26172 -4.61133 10.458 -5.42383 16.0752 -8.71777c1.01855 -0.53125 2.06348 -0.838867 3.13477 -0.988281
c4.33496 2.6709 9.71973 6.66797 11.1953 7.71289c0.43457 0.794922 7.20312 8.37598 9.20605 11.4111c5.54297 8.39355 12.3643 25.7773 17.6309 42.7217z" />
    <glyph glyph-name="c" unicode="c" horiz-adv-x="317" 
d="M229.349 -18.5898c-66.1758 -45.1377 -162.706 -27.1074 -208.327 38.3486c-48.5723 69.6768 -49.7314 166.506 -40.5391 247.958c9.6582 85.5674 43.3193 176.479 133.173 204.422c31.4609 9.78125 72.1543 4.77832 92.0859 -24.043
c21.6006 -31.2275 25.9268 -78.3457 24.0557 -115.051c-0.974609 -19.1846 -41.6768 -21.416 -40.8682 -2.85938c0.935547 21.416 -0.386719 42.7705 -5.52539 63.6553c-1.60352 6.51758 -12.9482 48.7129 -25.7383 46.1738
c-8.18262 -1.62988 -10.084 -30.96 -11.4453 -37.4121c-3.47461 -16.4883 -7.48926 -32.8135 -10.8408 -49.3408c-15.083 -74.3809 -24.126 -149.886 -18.0518 -225.799c2.70996 -33.8457 9.36426 -65.7373 23.085 -96.8027
c5.41992 -12.2764 13.6025 -25.0312 25.3164 -32.0898c14.2656 -8.59961 28.8516 1.81836 40.3066 11.2041c30.7578 25.2109 49.6699 67.1953 65.0205 102.793c15.8164 36.6787 28.0967 74.7324 39.6475 112.931c5.29688 17.5244 46.2314 15.3018 40.5352 -4.81445
c-13.3477 -47.1318 -27.8682 -94.123 -48.6514 -138.593c-17.4805 -37.4072 -38.2637 -76.8223 -73.2383 -100.681z" />
    <glyph glyph-name="d" unicode="d" horiz-adv-x="584" 
d="M113.729 460.155c46.2402 18.3418 103.935 19.3184 144.351 -5.0625c0.847656 24.7188 1.92773 49.4111 3.08301 74.0244c3.91309 83.498 1.15527 168.362 10.7656 251.364c4.49316 38.8047 38.0098 55.8506 74.5742 59.5439
c33.3672 3.36914 76.1641 -11.8623 82.1328 -48.585c13.1191 -80.6836 2.35449 -165.46 -2.86328 -246.573c-4.56348 -71.0029 -10.5723 -141.865 -13.9717 -212.943c-3.44336 -72.0391 -3.52637 -143.802 -4.80469 -215.867
c-0.457031 -25.8037 0.166992 -53.3164 8.50781 -78.0225c4.39258 -13.001 9.86035 -22.2598 24.5742 -15.5967c13.0664 5.91211 23.7393 17.6211 32.7783 28.4082c42.9902 51.291 77.6523 110.646 105.393 171.358c7.5498 16.5273 48.6904 13.7959 40.5342 -4.81348
c-17.248 -39.3398 -37.1221 -77.5205 -60.0098 -113.888c-20.4893 -32.5547 -42.6562 -68.6885 -72.9131 -93.1875c-54.9678 -44.5049 -137.263 -20.8799 -174.508 34.4873c-21.1045 31.373 -29.0938 71.376 -36.376 107.8
c-5.09082 25.4658 -8.66992 51.0371 -11.3447 76.7441c-7.36133 -42.498 -16.168 -84.7021 -27.7891 -126.247c-9.89941 -35.4004 -22.623 -71.7588 -55.4277 -92.1387c-31.9658 -19.8564 -79.2559 -20.8096 -112.913 -5.125
c-85.9492 40.0469 -100.922 150.311 -90.6924 234.341c11.1426 91.5225 44.4658 183.309 136.92 219.979zM215.709 210.276c10.1104 51.1152 17.8916 102.664 25.4287 154.24c-0.96582 0.768555 -1.85742 1.58594 -2.59961 2.47754
c-9.57031 11.4502 -20.4541 25.9131 -32.9189 34.3594c-4.28223 2.90332 -7.40527 3.9043 -11.9951 5.57324c0.474609 -0.170898 -2.41992 -0.583984 -2.54688 -0.610352c-0.799805 -0.162109 -1.33984 -0.267578 -1.75684 -0.341797
c-1.63867 -0.759766 -3.97949 -1.84473 -3.94922 -1.82324c-1.625 -1.22559 -6.93066 -5.46387 -8.93359 -7.51953c-8.54688 -8.77539 -15.9258 -21.5693 -21.0957 -33.1338c-25.0791 -56.1006 -40.9346 -122.426 -42.7881 -183.818
c-0.988281 -32.6377 1.34375 -66.2549 6.23633 -98.5322c1.81348 -11.9775 5.51562 -24.5957 11.3311 -35.251c2.26172 -4.14648 4.98438 -9.22852 8.7793 -12.2412c6.19727 -4.91504 3.22363 -3.03125 8.6875 -0.720703c27.165 11.499 36.3535 50.1895 43.7012 75.4482
c9.75879 33.5518 17.6426 67.626 24.4199 101.894z" />
    <glyph glyph-name="e" unicode="e" horiz-adv-x="317" 
d="M-19.5176 267.71c9.6582 85.5674 43.3184 176.479 133.177 204.427c31.4609 9.78125 72.1543 4.77832 92.0859 -24.043c21.6006 -31.2275 25.9268 -78.3457 24.0557 -115.051c-0.601562 -11.7881 -16.1807 -17.1416 -27.9297 -15.2402
c-0.571289 -0.0566406 -1.13379 -0.0957031 -1.67383 -0.108398c-24.2793 -0.580078 -48.4092 -2.49512 -72.4736 -5.61816c-10.2383 -61.0068 -15.3506 -122.672 -10.3965 -184.609c2.70996 -33.8457 9.36426 -65.7373 23.085 -96.8027
c5.41992 -12.2764 13.6025 -25.0312 25.3164 -32.0898c14.2656 -8.59961 28.8516 1.81836 40.3066 11.2041c30.7578 25.2109 49.6699 67.1953 65.0205 102.793c15.8164 36.6787 28.0967 74.7324 39.6475 112.931c5.29688 17.5244 46.2314 15.3018 40.5352 -4.81445
c-13.3477 -47.1318 -27.8682 -94.123 -48.6514 -138.593c-17.4805 -37.4072 -38.2637 -76.8223 -73.2383 -100.681c-66.1758 -45.1426 -162.706 -27.1084 -208.327 38.3389c-48.5723 69.6768 -49.7314 166.505 -40.5391 247.957zM146.209 402.601
c-3.47461 -16.4883 -7.4873 -32.8184 -10.8428 -49.3369c-0.720703 -3.55273 -1.41504 -7.11035 -2.10449 -10.668c18.5615 2.29688 37.1797 3.82129 55.8809 4.60742c-0.272461 15.6934 -1.97266 31.29 -5.75 46.6357c-1.60352 6.51758 -12.9482 48.7129 -25.7383 46.1738
c-8.18262 -1.62988 -10.084 -30.96 -11.4453 -37.4121z" />
    <glyph glyph-name="e" unicode="&#xeb;" horiz-adv-x="317" 
d="M-19.5176 267.71c9.6582 85.5674 43.3184 176.479 133.177 204.427c31.4609 9.78125 72.1543 4.77832 92.0859 -24.043c21.6006 -31.2275 25.9268 -78.3457 24.0557 -115.051c-0.601562 -11.7881 -16.1807 -17.1416 -27.9297 -15.2402
c-0.571289 -0.0566406 -1.13379 -0.0957031 -1.67383 -0.108398c-24.2793 -0.580078 -48.4092 -2.49512 -72.4736 -5.61816c-10.2383 -61.0068 -15.3506 -122.672 -10.3965 -184.609c2.70996 -33.8457 9.36426 -65.7373 23.085 -96.8027
c5.41992 -12.2764 13.6025 -25.0312 25.3164 -32.0898c14.2656 -8.59961 28.8516 1.81836 40.3066 11.2041c30.7578 25.2109 49.6699 67.1953 65.0205 102.793c15.8164 36.6787 28.0967 74.7324 39.6475 112.931c5.29688 17.5244 46.2314 15.3018 40.5352 -4.81445
c-13.3477 -47.1318 -27.8682 -94.123 -48.6514 -138.593c-17.4805 -37.4072 -38.2637 -76.8223 -73.2383 -100.681c-66.1758 -45.1426 -162.706 -27.1084 -208.327 38.3389c-48.5723 69.6768 -49.7314 166.505 -40.5391 247.957zM146.209 402.601
c-3.47461 -16.4883 -7.4873 -32.8184 -10.8428 -49.3369c-0.720703 -3.55273 -1.41504 -7.11035 -2.10449 -10.668c18.5615 2.29688 37.1797 3.82129 55.8809 4.60742c-0.272461 15.6934 -1.97266 31.29 -5.75 46.6357c-1.60352 6.51758 -12.9482 48.7129 -25.7383 46.1738
c-8.18262 -1.62988 -10.084 -30.96 -11.4453 -37.4121z" />
    <glyph glyph-name="e" unicode="&#xea;" horiz-adv-x="317" 
d="M-19.5176 267.71c9.6582 85.5674 43.3184 176.479 133.177 204.427c31.4609 9.78125 72.1543 4.77832 92.0859 -24.043c21.6006 -31.2275 25.9268 -78.3457 24.0557 -115.051c-0.601562 -11.7881 -16.1807 -17.1416 -27.9297 -15.2402
c-0.571289 -0.0566406 -1.13379 -0.0957031 -1.67383 -0.108398c-24.2793 -0.580078 -48.4092 -2.49512 -72.4736 -5.61816c-10.2383 -61.0068 -15.3506 -122.672 -10.3965 -184.609c2.70996 -33.8457 9.36426 -65.7373 23.085 -96.8027
c5.41992 -12.2764 13.6025 -25.0312 25.3164 -32.0898c14.2656 -8.59961 28.8516 1.81836 40.3066 11.2041c30.7578 25.2109 49.6699 67.1953 65.0205 102.793c15.8164 36.6787 28.0967 74.7324 39.6475 112.931c5.29688 17.5244 46.2314 15.3018 40.5352 -4.81445
c-13.3477 -47.1318 -27.8682 -94.123 -48.6514 -138.593c-17.4805 -37.4072 -38.2637 -76.8223 -73.2383 -100.681c-66.1758 -45.1426 -162.706 -27.1084 -208.327 38.3389c-48.5723 69.6768 -49.7314 166.505 -40.5391 247.957zM146.209 402.601
c-3.47461 -16.4883 -7.4873 -32.8184 -10.8428 -49.3369c-0.720703 -3.55273 -1.41504 -7.11035 -2.10449 -10.668c18.5615 2.29688 37.1797 3.82129 55.8809 4.60742c-0.272461 15.6934 -1.97266 31.29 -5.75 46.6357c-1.60352 6.51758 -12.9482 48.7129 -25.7383 46.1738
c-8.18262 -1.62988 -10.084 -30.96 -11.4453 -37.4121z" />
    <glyph glyph-name="e" unicode="&#xe9;" horiz-adv-x="317" 
d="M-19.5176 267.71c9.6582 85.5674 43.3184 176.479 133.177 204.427c31.4609 9.78125 72.1543 4.77832 92.0859 -24.043c21.6006 -31.2275 25.9268 -78.3457 24.0557 -115.051c-0.601562 -11.7881 -16.1807 -17.1416 -27.9297 -15.2402
c-0.571289 -0.0566406 -1.13379 -0.0957031 -1.67383 -0.108398c-24.2793 -0.580078 -48.4092 -2.49512 -72.4736 -5.61816c-10.2383 -61.0068 -15.3506 -122.672 -10.3965 -184.609c2.70996 -33.8457 9.36426 -65.7373 23.085 -96.8027
c5.41992 -12.2764 13.6025 -25.0312 25.3164 -32.0898c14.2656 -8.59961 28.8516 1.81836 40.3066 11.2041c30.7578 25.2109 49.6699 67.1953 65.0205 102.793c15.8164 36.6787 28.0967 74.7324 39.6475 112.931c5.29688 17.5244 46.2314 15.3018 40.5352 -4.81445
c-13.3477 -47.1318 -27.8682 -94.123 -48.6514 -138.593c-17.4805 -37.4072 -38.2637 -76.8223 -73.2383 -100.681c-66.1758 -45.1426 -162.706 -27.1084 -208.327 38.3389c-48.5723 69.6768 -49.7314 166.505 -40.5391 247.957zM146.209 402.601
c-3.47461 -16.4883 -7.4873 -32.8184 -10.8428 -49.3369c-0.720703 -3.55273 -1.41504 -7.11035 -2.10449 -10.668c18.5615 2.29688 37.1797 3.82129 55.8809 4.60742c-0.272461 15.6934 -1.97266 31.29 -5.75 46.6357c-1.60352 6.51758 -12.9482 48.7129 -25.7383 46.1738
c-8.18262 -1.62988 -10.084 -30.96 -11.4453 -37.4121z" />
    <glyph glyph-name="f" unicode="f" horiz-adv-x="339" 
d="M138.16 216.287c35.3301 8.08594 71.9854 9.87109 108.093 11.9131c35.9229 2.0332 71.4287 7.24219 106.931 13.0137c23.6514 3.84766 33.8809 -26.458 8.37109 -31.0215c-35.1592 -6.28906 -70.5645 -10.8828 -105.513 -18.2744
c-19.3564 -4.09375 -38.9756 -8.24902 -58.7051 -11.3809c41.1494 -54.8838 64.5859 -123.695 50.8955 -192.946c-13.6592 -69.0879 -98.1104 -119.18 -162.195 -79.2422c-71.2617 44.4043 -84.3809 150.566 -93.7578 226.032
c-11.0859 89.208 -13.7344 180.041 -11.6045 269.868c2.17871 91.9883 4.72656 184.587 18.2764 275.701c4.5459 30.5645 51.748 41.417 76.0586 40.8682c24.9072 -0.566406 64.3486 -13.0352 65.4512 -44.166c2.98242 -84.333 -5.00684 -168.842 -7.18555 -253.153
c-1.80469 -69.8652 -3.00781 -139.586 -1.4834 -209.442c1.98926 0.957031 4.12793 1.7168 6.36816 2.23047zM194.031 -27.1396c5.42383 14.1514 7.15234 29.4404 7.05566 44.501c-0.337891 55.7188 -21.3936 124.302 -68.2266 158.775
c1.03223 -29.208 2.39355 -58.3848 3.41699 -87.5967c1.18164 -33.6084 0.12793 -67.5771 4.19531 -101.036c1.66504 -13.6904 6.83008 -50.2725 27.4688 -47.1494c10.0977 1.52832 22.1016 22.0879 26.0898 32.5059z" />
    <glyph glyph-name="g" unicode="g" horiz-adv-x="519" 
d="M403.736 194.691c-0.170898 -16.3301 -0.451172 -32.6436 -0.736328 -48.9561c38.9541 29.6953 79.6689 58.2744 122.742 79.6855c12.5439 6.23242 43.416 -5.24414 25.123 -19.4922c-48.208 -37.5391 -100.237 -69.8301 -148.845 -107.058
c-1.25195 -52.9297 -2.98242 -105.846 -5.21777 -158.779c-3.03516 -71.8379 -7.67285 -144.088 -22.2324 -214.674c-12.6318 -61.2266 -34.1973 -130.271 -81.7109 -173.63c-42.4238 -38.7168 -106.593 -43.1924 -156.447 -16.5059
c-48.3525 25.8828 -76.4707 77.6436 -84.2451 130.529c-18.3418 124.736 71.8193 227.999 153.548 309.662c18.9561 18.9385 38.374 37.4209 58.1914 55.459c-0.193359 4.20801 -0.360352 8.41602 -0.557617 12.624c-2.40723 50.8867 -4.1377 101.796 -5.76758 152.709
c-6.0791 -31.3115 -13.1377 -62.416 -21.7373 -93.1611c-9.89941 -35.4004 -22.623 -71.7588 -55.4277 -92.1387c-31.9658 -19.8564 -79.2559 -20.8096 -112.913 -5.125c-85.9492 40.0469 -100.922 150.311 -90.6924 234.341
c11.1426 91.5225 44.4658 183.309 136.92 219.979c47.6191 18.8818 107.378 19.3516 147.917 -7.3125c9.54883 25.1797 36.1387 36.8848 64.1426 39.7129c28.79 2.90723 70.8926 -10.5234 74.3799 -44c8.75781 -84.1572 4.4668 -169.369 3.56641 -253.869zM215.715 210.277
c10.1104 51.1152 17.8906 102.664 25.4277 154.24c-0.96582 0.768555 -1.85742 1.58594 -2.59961 2.47754c-9.57031 11.4502 -20.458 25.9131 -32.918 34.3594c-4.28223 2.90332 -7.40527 3.9043 -11.9951 5.57324
c0.474609 -0.170898 -2.41992 -0.583984 -2.54688 -0.610352c-0.799805 -0.162109 -1.33984 -0.267578 -1.75684 -0.341797c-1.63867 -0.759766 -3.97949 -1.84473 -3.94922 -1.82324c-1.625 -1.22559 -6.93066 -5.46387 -8.93359 -7.51953
c-8.54688 -8.77539 -15.9258 -21.5693 -21.0957 -33.1338c-25.0791 -56.1006 -40.9346 -122.426 -42.7881 -183.818c-0.988281 -32.6377 1.34375 -66.2549 6.23633 -98.5322c1.81348 -11.9775 5.51562 -24.5957 11.3311 -35.251
c2.26172 -4.14648 4.98438 -9.22852 8.7793 -12.2412c6.19727 -4.91504 3.22363 -3.03125 8.6875 -0.720703c27.165 11.499 36.3535 50.1895 43.7012 75.4482c9.75879 33.5518 17.6426 67.626 24.4199 101.894zM262.37 -334.609
c10.4404 60.4043 11.0371 122.996 8.69141 184.1c-1.66895 43.5605 -3.21973 87.126 -4.97266 130.687c-11.1514 -10.8662 -22.1709 -21.8594 -33.002 -33.0371c-73.9238 -76.2646 -149.591 -170.801 -129.923 -284.161c8.18262 -47.1533 40.0742 -102.318 91.835 -110.066
c50.2412 -7.52344 61.5469 78.7861 67.3711 112.479z" />
    <glyph glyph-name="h" unicode="h" horiz-adv-x="543" 
d="M-9.88965 189.398c-4.9502 63.2549 -8.84766 126.782 -10.0244 190.227c-2.56543 137.895 -0.993164 276.663 9.2627 414.22c2.30566 30.916 31.8955 46.3057 60.4971 48.3037c23.0762 1.6123 67.2393 -8.83203 66.6328 -39.4141
c-2.74023 -138.119 -10.1934 -275.943 -8.52441 -414.163c0.768555 -63.585 1.56836 -127.1 4.18164 -190.645c0.15332 -3.72852 0.31543 -7.4707 0.482422 -11.2217c12.5566 41.8877 26.7568 83.2393 43.8818 123.484c16.1807 38.0225 35.5938 75.2461 61.2041 107.827
c21.6924 27.5996 49.4238 56.1748 87.7754 52.5732c38.8262 -3.64062 71.499 -34.583 91.9746 -66.0879c23.0322 -35.4316 32.3564 -81.7637 34.4033 -123.463c2.17871 -44.2812 -2.16992 -88.1846 -4.22559 -132.378
c-2.04688 -43.9121 -11.8896 -88.4307 -10.9893 -132.264c0.0263672 -1.34863 1.17285 -7.69531 0.834961 -9.96191c5.60449 0.448242 14.2393 8.21777 18.7061 12.584c13.8662 13.541 23.7041 31.1797 33.3096 47.8477c23.8232 41.3564 46.4824 83.4238 69.6816 125.136
c8.88086 15.9658 48.6777 8.57812 37.3809 -12.1172c-25.7598 -47.1973 -51.2959 -94.5176 -76.9238 -141.781c-19.1318 -35.291 -45.124 -60.748 -84.6924 -70.8232c-43.877 -11.1777 -86.9502 5.13477 -111.182 43.1572
c-24.2354 38.0312 -33.3008 86.8975 -30.3711 131.609c2.91211 44.4746 10.1279 88.4043 14.6475 132.682c4.25195 41.624 4.60742 83.4277 8.41504 124.92c0.939453 10.2158 1.83105 21.1738 0.104492 31.377c-0.28125 1.66895 -0.250977 6.60547 -1.87598 7.70312
c-3.3291 2.24414 -1.04492 0.53125 -6.62695 -2.67969c-17.292 -9.95215 -30.7363 -29.8311 -42.1299 -45.8057c-24.7764 -34.7324 -42.8809 -73.4531 -58.416 -113.044c-30.7051 -78.2451 -52.9951 -159.657 -74.9688 -240.753
c-1.59473 -14.9639 -3.89648 -29.7832 -7.25195 -44.3604c-6.56152 -28.5049 -64.2783 -30.6963 -75.6494 -5.29199c-27.8457 62.2275 -34.2314 134.943 -39.5244 202.604z" />
    <glyph glyph-name="i" unicode="i" horiz-adv-x="259" 
d="M252.678 223.949c3.90918 17.2832 43.3164 15.3574 39.333 -4.6709c-10.3525 -52.0645 -31.4961 -103.241 -56.9746 -149.622c-11.8232 -21.5254 -25.3818 -43.1211 -43.6924 -59.7891c-18.5527 -16.8877 -38.3965 -20.0898 -62.4297 -24.0781
c-38.7783 -6.43848 -77.8291 8.2793 -102.403 39.0156c-27.1436 33.9512 -33.9512 79.3389 -40.166 121.139c-12.8779 86.6123 -10.1816 178.913 3.51758 265.24c4.85352 30.5645 51.5195 41.417 76.0586 40.8633c22.9004 -0.513672 66.7773 -13.1934 65.4512 -44.1621
c-3.13574 -73.1416 -12.5742 -145.576 -12.1924 -218.938c0.179688 -34.9746 0.803711 -69.9443 2.88574 -104.861c0.957031 -16.0664 1.18945 -54.6816 19.7637 -62.9121c1.71289 -0.759766 4.31738 0.170898 9.92578 3.75879
c6.70703 4.29102 12.2061 11.0811 17.1738 17.1602c14.6172 17.8848 26.4756 38.1504 36.9902 58.6523c19.8916 38.7871 37.1221 80.5869 46.7588 123.204zM39.125 497.273c-20.6387 23.2559 -35.6113 51.4072 -45.1426 80.9658
c-7.76074 24.0684 -17.6475 61.665 6.71582 79.4482c30.1035 21.9736 49.8682 -0.496094 62.3418 -32.2998c13.0273 16.1807 33.2178 29.5322 54.1768 22.4131c26.1289 -8.87695 22.2988 -34.0742 13.5762 -54.7217c-13.418 -31.7598 -32.0186 -61.0029 -45.1377 -92.9248
c-6.83887 -16.6416 -41.5449 -15.9434 -46.5303 -2.88086z" />
    <glyph glyph-name="i" unicode="&#xef;" horiz-adv-x="259" 
d="M252.678 223.949c3.90918 17.2832 43.3164 15.3574 39.333 -4.6709c-10.3525 -52.0645 -31.4961 -103.241 -56.9746 -149.622c-11.8232 -21.5254 -25.3818 -43.1211 -43.6924 -59.7891c-18.5527 -16.8877 -38.3965 -20.0898 -62.4297 -24.0781
c-38.7783 -6.43848 -77.8291 8.2793 -102.403 39.0156c-27.1436 33.9512 -33.9512 79.3389 -40.166 121.139c-12.8779 86.6123 -10.1816 178.913 3.51758 265.24c4.85352 30.5645 51.5195 41.417 76.0586 40.8633c22.9004 -0.513672 66.7773 -13.1934 65.4512 -44.1621
c-3.13574 -73.1416 -12.5742 -145.576 -12.1924 -218.938c0.179688 -34.9746 0.803711 -69.9443 2.88574 -104.861c0.957031 -16.0664 1.18945 -54.6816 19.7637 -62.9121c1.71289 -0.759766 4.31738 0.170898 9.92578 3.75879
c6.70703 4.29102 12.2061 11.0811 17.1738 17.1602c14.6172 17.8848 26.4756 38.1504 36.9902 58.6523c19.8916 38.7871 37.1221 80.5869 46.7588 123.204zM39.125 497.273c-20.6387 23.2559 -35.6113 51.4072 -45.1426 80.9658
c-7.76074 24.0684 -17.6475 61.665 6.71582 79.4482c30.1035 21.9736 49.8682 -0.496094 62.3418 -32.2998c13.0273 16.1807 33.2178 29.5322 54.1768 22.4131c26.1289 -8.87695 22.2988 -34.0742 13.5762 -54.7217c-13.418 -31.7598 -32.0186 -61.0029 -45.1377 -92.9248
c-6.83887 -16.6416 -41.5449 -15.9434 -46.5303 -2.88086z" />
    <glyph glyph-name="i" unicode="&#xee;" horiz-adv-x="259" 
d="M252.678 223.949c3.90918 17.2832 43.3164 15.3574 39.333 -4.6709c-10.3525 -52.0645 -31.4961 -103.241 -56.9746 -149.622c-11.8232 -21.5254 -25.3818 -43.1211 -43.6924 -59.7891c-18.5527 -16.8877 -38.3965 -20.0898 -62.4297 -24.0781
c-38.7783 -6.43848 -77.8291 8.2793 -102.403 39.0156c-27.1436 33.9512 -33.9512 79.3389 -40.166 121.139c-12.8779 86.6123 -10.1816 178.913 3.51758 265.24c4.85352 30.5645 51.5195 41.417 76.0586 40.8633c22.9004 -0.513672 66.7773 -13.1934 65.4512 -44.1621
c-3.13574 -73.1416 -12.5742 -145.576 -12.1924 -218.938c0.179688 -34.9746 0.803711 -69.9443 2.88574 -104.861c0.957031 -16.0664 1.18945 -54.6816 19.7637 -62.9121c1.71289 -0.759766 4.31738 0.170898 9.92578 3.75879
c6.70703 4.29102 12.2061 11.0811 17.1738 17.1602c14.6172 17.8848 26.4756 38.1504 36.9902 58.6523c19.8916 38.7871 37.1221 80.5869 46.7588 123.204zM39.125 497.273c-20.6387 23.2559 -35.6113 51.4072 -45.1426 80.9658
c-7.76074 24.0684 -17.6475 61.665 6.71582 79.4482c30.1035 21.9736 49.8682 -0.496094 62.3418 -32.2998c13.0273 16.1807 33.2178 29.5322 54.1768 22.4131c26.1289 -8.87695 22.2988 -34.0742 13.5762 -54.7217c-13.418 -31.7598 -32.0186 -61.0029 -45.1377 -92.9248
c-6.83887 -16.6416 -41.5449 -15.9434 -46.5303 -2.88086z" />
    <glyph glyph-name="i" unicode="&#xed;" horiz-adv-x="259" 
d="M252.678 223.949c3.90918 17.2832 43.3164 15.3574 39.333 -4.6709c-10.3525 -52.0645 -31.4961 -103.241 -56.9746 -149.622c-11.8232 -21.5254 -25.3818 -43.1211 -43.6924 -59.7891c-18.5527 -16.8877 -38.3965 -20.0898 -62.4297 -24.0781
c-38.7783 -6.43848 -77.8291 8.2793 -102.403 39.0156c-27.1436 33.9512 -33.9512 79.3389 -40.166 121.139c-12.8779 86.6123 -10.1816 178.913 3.51758 265.24c4.85352 30.5645 51.5195 41.417 76.0586 40.8633c22.9004 -0.513672 66.7773 -13.1934 65.4512 -44.1621
c-3.13574 -73.1416 -12.5742 -145.576 -12.1924 -218.938c0.179688 -34.9746 0.803711 -69.9443 2.88574 -104.861c0.957031 -16.0664 1.18945 -54.6816 19.7637 -62.9121c1.71289 -0.759766 4.31738 0.170898 9.92578 3.75879
c6.70703 4.29102 12.2061 11.0811 17.1738 17.1602c14.6172 17.8848 26.4756 38.1504 36.9902 58.6523c19.8916 38.7871 37.1221 80.5869 46.7588 123.204zM39.125 497.273c-20.6387 23.2559 -35.6113 51.4072 -45.1426 80.9658
c-7.76074 24.0684 -17.6475 61.665 6.71582 79.4482c30.1035 21.9736 49.8682 -0.496094 62.3418 -32.2998c13.0273 16.1807 33.2178 29.5322 54.1768 22.4131c26.1289 -8.87695 22.2988 -34.0742 13.5762 -54.7217c-13.418 -31.7598 -32.0186 -61.0029 -45.1377 -92.9248
c-6.83887 -16.6416 -41.5449 -15.9434 -46.5303 -2.88086z" />
    <glyph glyph-name="j" unicode="j" horiz-adv-x="259" 
d="M265.974 225.412c12.5391 6.23242 43.417 -5.24512 25.1279 -19.4883c-48.208 -37.5391 -100.237 -69.8301 -148.845 -107.058c-1.25195 -52.9297 -2.98242 -105.846 -5.21777 -158.779c-3.03516 -71.8379 -7.67285 -144.088 -22.2324 -214.674
c-12.6318 -61.2266 -34.1973 -130.271 -81.7109 -173.63c-42.4238 -38.7168 -106.593 -43.1924 -156.447 -16.5059c-48.3486 25.8828 -76.4717 77.6436 -84.2461 130.529c-18.3418 124.736 71.8193 227.999 153.548 309.662c18.9561 18.9385 38.374 37.4209 58.1914 55.459
c-0.193359 4.20801 -0.360352 8.41602 -0.557617 12.624c-3.09668 65.4297 -5.07715 130.895 -7.15918 196.368c-2.1084 66.3428 -4.94141 132.606 2.06445 198.717c3.72461 35.1543 34.7021 50.6055 67.5332 53.9219c28.79 2.90723 70.8926 -10.5234 74.3799 -44
c8.75781 -84.1572 4.4668 -169.369 3.56641 -253.869c-0.170898 -16.3252 -0.452148 -32.6465 -0.737305 -48.9629c38.9541 29.6953 79.6689 58.2744 122.742 79.6855zM2.59668 -334.61c10.4404 60.4053 11.0371 122.996 8.69141 184.1
c-1.66895 43.5605 -3.21973 87.126 -4.97266 130.687c-11.1514 -10.8662 -22.1709 -21.8594 -33.002 -33.0371c-73.9238 -76.2646 -149.591 -170.801 -129.923 -284.161c8.18262 -47.1533 40.0742 -102.318 91.835 -110.066
c50.2412 -7.52344 61.5469 78.7861 67.3711 112.479zM44.0703 532.41c-20.6387 23.2559 -35.6074 51.4072 -45.1426 80.9658c-7.76074 24.0684 -17.6514 61.665 6.71582 79.4482c30.1035 21.9736 49.8682 -0.496094 62.3418 -32.2998
c13.0273 16.1807 33.2178 29.5322 54.1768 22.4131c26.1289 -8.87695 22.2988 -34.0742 13.5762 -54.7217c-13.418 -31.7598 -32.0186 -61.0029 -45.1377 -92.9248c-6.83887 -16.6416 -41.5449 -15.9434 -46.5303 -2.88086z" />
    <glyph glyph-name="k" unicode="k" horiz-adv-x="481" 
d="M49.8438 842.155c23.0762 1.6123 67.2402 -8.83105 66.6338 -39.4131c-2.74023 -138.119 -10.1934 -275.943 -8.52441 -414.163c0.606445 -50.25 1.27441 -100.452 2.79883 -150.663c1.93652 5.77539 3.92578 11.5381 6.02051 17.2783
c24.2178 66.3389 55.3223 134.61 107.312 183.916c21.8379 20.709 49.3105 39.6914 80.4902 40.1963c24.8291 0.399414 54.4717 -14.6348 47.8262 -43.8252c-6.61914 -29.0674 -37.8428 -55.165 -60.9277 -71.2529c-22.0615 -15.3721 -46.0859 -27.376 -70.5283 -38.4307
c42.2607 -26.1064 62.4775 -71.3545 75.377 -118.263c12.6445 -45.9727 25.2148 -92.7617 34.1396 -139.608c2.35449 -12.3555 4.20312 -39.7188 21.332 -42.916c20.1025 -3.75488 41.9844 28.8701 50.6104 42.6172c28.0703 44.7295 50.9229 93.4072 75.8525 139.946
c8.49414 15.8604 47.6191 8.64453 36.832 -11.9414c-16.1758 -30.8682 -32.3516 -61.7363 -48.5273 -92.5996c-13.5234 -25.8037 -26.1943 -52.4023 -45.4229 -74.5869c-37.1445 -42.8535 -97.4092 -58.0547 -148.313 -30.8232
c-26.6865 14.2744 -50.0176 36.5645 -62.2676 64.4238c-12.3379 28.0566 -18.6006 59.583 -24.3232 89.5947c-6.74609 35.4004 -18.1396 72.3643 -23.1689 109.157c-22.5537 -60.0752 -36.8633 -123.15 -47.9619 -186.616
c-0.917969 -27.8018 -3.64941 -55.3496 -9.80762 -82.0977c-6.56641 -28.5049 -64.2832 -30.6963 -75.6543 -5.29199c-27.8457 62.2275 -34.2314 134.943 -39.5244 202.604c-4.9502 63.2598 -8.85059 126.787 -10.0322 190.235
c-2.56543 137.895 -0.993164 276.663 9.2627 414.22c2.30566 30.916 31.8955 46.3057 60.4971 48.3037zM256.994 419.635c-19.5059 -18.5039 -35.3311 -40.7725 -48.9814 -63.8574c38.1191 17.3311 79.1279 39.6777 96.877 75.6973
c8.54297 17.3447 -2.90723 18.7637 -16.2197 12.2285c-11.7754 -5.78027 -22.2373 -15.1133 -31.6758 -24.0684z" />
    <glyph glyph-name="l" unicode="l" 
d="M-6.56055 780.489c4.49316 38.8047 38.0107 55.8447 74.5752 59.5381c33.3672 3.36914 76.1641 -11.8623 82.1328 -48.585c13.1191 -80.6836 2.35449 -165.46 -2.86328 -246.573c-4.56348 -71.0029 -10.5723 -141.865 -13.9717 -212.942
c-3.44336 -72.0391 -3.52637 -143.802 -4.80469 -215.867c-0.457031 -25.8037 0.170898 -53.3164 8.51172 -78.0225c4.3877 -13.001 9.85547 -22.2598 24.5693 -15.5967c13.0625 5.91211 23.7393 17.6211 32.7783 28.4082c42.9854 51.291 77.6475 110.646 105.388 171.358
c7.5498 16.5273 48.6904 13.7959 40.5342 -4.81348c-17.248 -39.3398 -37.1221 -77.5205 -60.0098 -113.888c-20.4893 -32.5547 -42.6562 -68.6885 -72.9131 -93.1875c-54.9678 -44.5049 -137.263 -20.8799 -174.508 34.4873c-21.1045 31.373 -29.0938 71.376 -36.376 107.8
c-8.34961 41.7607 -12.6582 83.7979 -15.5303 126.266c-5.62207 83.125 -2.17383 167.111 1.72168 250.254c3.91309 83.498 1.15527 168.362 10.7656 251.364z" />
    <glyph glyph-name="m" unicode="m" horiz-adv-x="669" 
d="M580.192 58.4912c9.81641 13.875 18.9238 28.3213 27.7695 42.8193c19.5449 32.124 35.6289 65.6934 52.4902 99.2363c8.12988 16.167 50.9131 16.25 42.9453 -5.09961c-14.4014 -38.5977 -34.4951 -75.7861 -55.3398 -111.253
c-18.0781 -30.749 -36.3975 -64.1426 -68.6221 -81.9922c-27.877 -15.4385 -60.7393 -12.2188 -89.4111 -0.689453c-36.5996 14.7178 -58.0156 43.3408 -69.4219 80.5156c-12.5088 40.7676 -10.8311 82.2734 -7.37402 124.244
c3.36426 40.8076 7.7832 81.4082 12.0303 122.123c3.4834 33.4023 6.4873 67.2041 10.998 100.439c-1.47168 -1.49316 -2.65332 -2.75781 -3.24609 -3.56641c-9.95703 -13.585 -17.2783 -28.6846 -23.7832 -44.1582c-28.3867 -67.5371 -43.8555 -139.37 -62.0605 -210.074
c-1.35254 -31.4736 -35.7607 -45.7656 -63.0098 -48.5195c-24.0557 -2.42871 -70.1729 9.7373 -69.54 41.1367c1.26074 62.8076 6.96191 125.426 13.5146 187.873c1.5459 14.7754 3.07422 29.5771 4.48438 44.3564c0.615234 6.49609 1.16406 13.1328 1.28711 19.668
c0.0566406 2.89453 -1.125 7.9502 -0.00488281 10.2383c-5.78906 -5.33594 -17.0283 -27.2568 -18.9785 -30.7266c-7.49707 -13.3564 -13.7861 -27.3848 -19.7373 -41.4834c-45.2256 -107.146 -61.6914 -223.743 -89.7881 -335.927
c-0.500977 -1.99414 -1.47559 -3.72949 -2.7666 -5.23145c-1.82227 -5.70508 -4.36133 -11.2256 -7.87988 -16.501c-11.5908 -17.3838 -38.1631 -16.1143 -54.4932 -8.70898c-37.1973 16.8613 -44.5625 58.3496 -50.7773 95.0898
c-6.25391 36.9639 -7.36523 75.5312 -7.2998 112.956c0.135742 80.2969 -2.36816 161.96 7.76855 241.717c3.41309 26.8535 45.7139 36.0723 66.5635 35.7646c22.2061 -0.325195 55.832 -11.5166 57.2812 -38.6514c3.63184 -67.9854 -2.23633 -136.973 -4.97266 -205.222
c0.416992 1.66016 0.794922 3.3291 1.2168 4.98926c16.6113 65.2314 36.9736 133.959 74.2979 190.714c15.5264 23.6162 36.8496 44.7998 67.6914 35.1016c27.1211 -8.5293 48.1904 -38.4092 60.251 -62.4775c13.8174 -27.5693 19.8086 -59.8027 24.833 -90.5957
c9.54004 34.4521 21.2227 68.1396 36.292 99.8857c12.2539 25.8213 29.5283 54.8135 56.623 67.0723c26.5771 12.0215 59.6807 -0.821289 80.2402 -18.9434c29.8486 -26.3086 39.1426 -66.1934 45.1514 -104.058c6.10938 -38.5098 5.63477 -77.8018 5.06348 -116.654
c-0.580078 -39.2832 -0.689453 -78.334 -5.15625 -117.402c-2.06445 -18.0205 -7.04492 -36.0898 -7.70801 -54.2471c-0.293945 -7.96289 -2.12988 -24.3584 2.75 -31.75c1.57715 0.439453 3.1543 0.874023 4.73145 1.31348
c3.23242 2.61328 6.49121 4.73438 9.53516 7.60254c5.98633 5.64355 10.8223 12.377 15.5615 19.0752z" />
    <glyph glyph-name="n" unicode="n" horiz-adv-x="504" 
d="M391.108 16.459c27.1963 22.9971 47.0156 58.7676 63.8154 89.5518c17.2656 31.623 31.0879 65.0342 44.4531 98.4541c6.6582 16.6553 46.7578 13.5498 39.3311 -4.66895c-30.4463 -74.6611 -64.7178 -145.168 -117.437 -206.657
c-25.2285 -29.4316 -67.876 -33.2832 -102.126 -16.6279c-43.0557 20.9414 -69.7422 66.5576 -75.6143 112.916c-5.63086 44.4658 -2.36719 90.4863 0.460938 135.11c2.95117 46.6094 6.60547 93.2012 9.72852 139.797c0.838867 12.4775 1.51562 24.6836 2.85547 37.1172
c0.566406 5.25781 -0.680664 13.8359 1.15527 18.6582c0.0214844 0.0615234 0.0126953 0.109375 0.0302734 0.166016c-0.0136719 -0.00390625 -0.0224609 -0.0078125 -0.0400391 -0.0117188c-1.2959 -0.886719 -2.5918 -1.76953 -3.8877 -2.65234
c-8.22168 -6.36426 -15.3984 -14.2441 -21.9033 -22.3125c-26.3838 -32.7217 -42.0547 -72.3516 -56.5352 -111.389c-31.8916 -85.9717 -54.1592 -175.062 -76.3652 -263.909c-0.421875 -1.68652 -1.16895 -3.19336 -2.16992 -4.52441
c-3.31641 -8.96387 -7.88379 -17.625 -14.2832 -25.8867c-12.917 -16.6855 -41.9092 -17.9199 -57.1016 -3.99219c-31.3066 28.6982 -35.1367 71.1572 -38.7334 111.758c-3.26367 36.832 -4.7002 73.9805 -5.50879 110.94c-0.8125 36.999 0.62793 74.1172 2.52051 111.063
c2.09473 40.8945 3.25391 82.6328 14.1816 122.294c12.4082 45.0459 116.519 49.9082 119.584 -2.78418c2.22656 -38.3125 -3.71582 -76.6201 -6.13574 -114.836c-2.3457 -37.0518 -3.27637 -74.1299 -4.58496 -111.226c0 -0.0917969 0 -0.174805 -0.00488281 -0.266602
c10.8086 35.9453 22.79 71.5078 36.665 106.407c24.5869 61.832 70.2119 151.295 150.491 138.615c98.9238 -15.623 102.543 -139.134 103.048 -218.1c0.293945 -46.4287 -1.12891 -92.915 -0.958008 -139.361c0.0830078 -22.6328 -3.7334 -44.9092 -5.58203 -67.4277
c-0.386719 -4.72168 0.421875 -10.7041 0.650391 -16.2158z" />
    <glyph glyph-name="o" unicode="o" horiz-adv-x="382" 
d="M118.539 -17.6064c-66.0488 5.63477 -111.832 64.5566 -129.752 123.956c-19.0225 63.0576 -22.8525 139.704 -0.360352 202.384c8.37988 23.3613 38.7383 37.2578 68.0996 38.3291c-4.85352 73.3135 24.5205 151.05 104.751 155.824
c57.2822 3.4082 88.0537 -45.0635 102.1 -93.8818c17.0898 -59.3994 26.498 -121.605 24.293 -183.504c-0.320312 -9.10449 -0.917969 -18.6709 -1.81348 -28.5c34.7812 4.16406 69.4521 16.1719 100.078 32.4932c18.6094 9.91699 48.7744 -10.9189 23.6777 -24.2881
c-38.207 -20.3574 -82.7646 -34.0605 -127.34 -37.7852c-13.9668 -92.2393 -56.8818 -194.149 -163.733 -185.027zM221.223 114.896c5.77148 17.2168 10.2686 34.7598 13.6289 52.5088c-44.2197 3.9043 -86.1162 19.3252 -119.22 49.7051
c-1.15918 -24.5869 -0.754883 -49.4854 1.76172 -73.9404c2.30566 -22.4043 6.95703 -45.5029 14.8057 -66.6729c3.83008 -10.3262 10.6689 -32.6025 22.5625 -36.793c12.6406 -4.44922 29.1416 13.6465 36.4893 21.8682c13.8086 15.4512 23.4277 33.8145 29.9717 53.3242z
M138.967 463.755c-33.9775 -23.2695 -42.6299 -74.7588 -40.7285 -112.913c0.228516 -4.57617 0.636719 -9.16113 1.20312 -13.7334c10.6689 -6.77734 18.1182 -17.0859 19.541 -31.4131c1.04102 -10.502 1.04492 -21.0781 0.583984 -31.668
c5.85938 -10.585 12.9307 -20.4844 21.2314 -29.3691c27.7715 -29.7129 62.1885 -44.2988 98.4805 -48.1641c2.25293 18.9873 3.33301 38.1279 3.21875 57.3125c-0.254883 43.5215 -19.8477 267.261 -103.53 209.948z" />
    <glyph glyph-name="o" unicode="&#xf6;" horiz-adv-x="382" 
d="M118.539 -17.6064c-66.0488 5.63477 -111.832 64.5566 -129.752 123.956c-19.0225 63.0576 -22.8525 139.704 -0.360352 202.384c8.37988 23.3613 38.7383 37.2578 68.0996 38.3291c-4.85352 73.3135 24.5205 151.05 104.751 155.824
c57.2822 3.4082 88.0537 -45.0635 102.1 -93.8818c17.0898 -59.3994 26.498 -121.605 24.293 -183.504c-0.320312 -9.10449 -0.917969 -18.6709 -1.81348 -28.5c34.7812 4.16406 69.4521 16.1719 100.078 32.4932c18.6094 9.91699 48.7744 -10.9189 23.6777 -24.2881
c-38.207 -20.3574 -82.7646 -34.0605 -127.34 -37.7852c-13.9668 -92.2393 -56.8818 -194.149 -163.733 -185.027zM221.223 114.896c5.77148 17.2168 10.2686 34.7598 13.6289 52.5088c-44.2197 3.9043 -86.1162 19.3252 -119.22 49.7051
c-1.15918 -24.5869 -0.754883 -49.4854 1.76172 -73.9404c2.30566 -22.4043 6.95703 -45.5029 14.8057 -66.6729c3.83008 -10.3262 10.6689 -32.6025 22.5625 -36.793c12.6406 -4.44922 29.1416 13.6465 36.4893 21.8682c13.8086 15.4512 23.4277 33.8145 29.9717 53.3242z
M138.967 463.755c-33.9775 -23.2695 -42.6299 -74.7588 -40.7285 -112.913c0.228516 -4.57617 0.636719 -9.16113 1.20312 -13.7334c10.6689 -6.77734 18.1182 -17.0859 19.541 -31.4131c1.04102 -10.502 1.04492 -21.0781 0.583984 -31.668
c5.85938 -10.585 12.9307 -20.4844 21.2314 -29.3691c27.7715 -29.7129 62.1885 -44.2988 98.4805 -48.1641c2.25293 18.9873 3.33301 38.1279 3.21875 57.3125c-0.254883 43.5215 -19.8477 267.261 -103.53 209.948z" />
    <glyph glyph-name="o" unicode="&#xf5;" horiz-adv-x="382" 
d="M118.539 -17.6064c-66.0488 5.63477 -111.832 64.5566 -129.752 123.956c-19.0225 63.0576 -22.8525 139.704 -0.360352 202.384c8.37988 23.3613 38.7383 37.2578 68.0996 38.3291c-4.85352 73.3135 24.5205 151.05 104.751 155.824
c57.2822 3.4082 88.0537 -45.0635 102.1 -93.8818c17.0898 -59.3994 26.498 -121.605 24.293 -183.504c-0.320312 -9.10449 -0.917969 -18.6709 -1.81348 -28.5c34.7812 4.16406 69.4521 16.1719 100.078 32.4932c18.6094 9.91699 48.7744 -10.9189 23.6777 -24.2881
c-38.207 -20.3574 -82.7646 -34.0605 -127.34 -37.7852c-13.9668 -92.2393 -56.8818 -194.149 -163.733 -185.027zM221.223 114.896c5.77148 17.2168 10.2686 34.7598 13.6289 52.5088c-44.2197 3.9043 -86.1162 19.3252 -119.22 49.7051
c-1.15918 -24.5869 -0.754883 -49.4854 1.76172 -73.9404c2.30566 -22.4043 6.95703 -45.5029 14.8057 -66.6729c3.83008 -10.3262 10.6689 -32.6025 22.5625 -36.793c12.6406 -4.44922 29.1416 13.6465 36.4893 21.8682c13.8086 15.4512 23.4277 33.8145 29.9717 53.3242z
M138.967 463.755c-33.9775 -23.2695 -42.6299 -74.7588 -40.7285 -112.913c0.228516 -4.57617 0.636719 -9.16113 1.20312 -13.7334c10.6689 -6.77734 18.1182 -17.0859 19.541 -31.4131c1.04102 -10.502 1.04492 -21.0781 0.583984 -31.668
c5.85938 -10.585 12.9307 -20.4844 21.2314 -29.3691c27.7715 -29.7129 62.1885 -44.2988 98.4805 -48.1641c2.25293 18.9873 3.33301 38.1279 3.21875 57.3125c-0.254883 43.5215 -19.8477 267.261 -103.53 209.948z" />
    <glyph glyph-name="o" unicode="&#xf4;" horiz-adv-x="382" 
d="M118.539 -17.6064c-66.0488 5.63477 -111.832 64.5566 -129.752 123.956c-19.0225 63.0576 -22.8525 139.704 -0.360352 202.384c8.37988 23.3613 38.7383 37.2578 68.0996 38.3291c-4.85352 73.3135 24.5205 151.05 104.751 155.824
c57.2822 3.4082 88.0537 -45.0635 102.1 -93.8818c17.0898 -59.3994 26.498 -121.605 24.293 -183.504c-0.320312 -9.10449 -0.917969 -18.6709 -1.81348 -28.5c34.7812 4.16406 69.4521 16.1719 100.078 32.4932c18.6094 9.91699 48.7744 -10.9189 23.6777 -24.2881
c-38.207 -20.3574 -82.7646 -34.0605 -127.34 -37.7852c-13.9668 -92.2393 -56.8818 -194.149 -163.733 -185.027zM221.223 114.896c5.77148 17.2168 10.2686 34.7598 13.6289 52.5088c-44.2197 3.9043 -86.1162 19.3252 -119.22 49.7051
c-1.15918 -24.5869 -0.754883 -49.4854 1.76172 -73.9404c2.30566 -22.4043 6.95703 -45.5029 14.8057 -66.6729c3.83008 -10.3262 10.6689 -32.6025 22.5625 -36.793c12.6406 -4.44922 29.1416 13.6465 36.4893 21.8682c13.8086 15.4512 23.4277 33.8145 29.9717 53.3242z
M138.967 463.755c-33.9775 -23.2695 -42.6299 -74.7588 -40.7285 -112.913c0.228516 -4.57617 0.636719 -9.16113 1.20312 -13.7334c10.6689 -6.77734 18.1182 -17.0859 19.541 -31.4131c1.04102 -10.502 1.04492 -21.0781 0.583984 -31.668
c5.85938 -10.585 12.9307 -20.4844 21.2314 -29.3691c27.7715 -29.7129 62.1885 -44.2988 98.4805 -48.1641c2.25293 18.9873 3.33301 38.1279 3.21875 57.3125c-0.254883 43.5215 -19.8477 267.261 -103.53 209.948z" />
    <glyph glyph-name="o" unicode="&#xf3;" horiz-adv-x="382" 
d="M118.539 -17.6064c-66.0488 5.63477 -111.832 64.5566 -129.752 123.956c-19.0225 63.0576 -22.8525 139.704 -0.360352 202.384c8.37988 23.3613 38.7383 37.2578 68.0996 38.3291c-4.85352 73.3135 24.5205 151.05 104.751 155.824
c57.2822 3.4082 88.0537 -45.0635 102.1 -93.8818c17.0898 -59.3994 26.498 -121.605 24.293 -183.504c-0.320312 -9.10449 -0.917969 -18.6709 -1.81348 -28.5c34.7812 4.16406 69.4521 16.1719 100.078 32.4932c18.6094 9.91699 48.7744 -10.9189 23.6777 -24.2881
c-38.207 -20.3574 -82.7646 -34.0605 -127.34 -37.7852c-13.9668 -92.2393 -56.8818 -194.149 -163.733 -185.027zM221.223 114.896c5.77148 17.2168 10.2686 34.7598 13.6289 52.5088c-44.2197 3.9043 -86.1162 19.3252 -119.22 49.7051
c-1.15918 -24.5869 -0.754883 -49.4854 1.76172 -73.9404c2.30566 -22.4043 6.95703 -45.5029 14.8057 -66.6729c3.83008 -10.3262 10.6689 -32.6025 22.5625 -36.793c12.6406 -4.44922 29.1416 13.6465 36.4893 21.8682c13.8086 15.4512 23.4277 33.8145 29.9717 53.3242z
M138.967 463.755c-33.9775 -23.2695 -42.6299 -74.7588 -40.7285 -112.913c0.228516 -4.57617 0.636719 -9.16113 1.20312 -13.7334c10.6689 -6.77734 18.1182 -17.0859 19.541 -31.4131c1.04102 -10.502 1.04492 -21.0781 0.583984 -31.668
c5.85938 -10.585 12.9307 -20.4844 21.2314 -29.3691c27.7715 -29.7129 62.1885 -44.2988 98.4805 -48.1641c2.25293 18.9873 3.33301 38.1279 3.21875 57.3125c-0.254883 43.5215 -19.8477 267.261 -103.53 209.948z" />
    <glyph glyph-name="p" unicode="p" horiz-adv-x="558" 
d="M5.20605 -78.1387c-8.2832 58.4814 -14.459 116.969 -18.4824 175.894c-8.0459 117.841 -11.9023 244.896 18.4424 359.859c7.48828 28.373 45.7256 38.6201 70.8174 38.0537c22.0264 -0.496094 61.3271 -12.21 60.9453 -41.123
c-0.777344 -58.4678 -6.7334 -116.492 -8.6748 -174.925c-1.90137 -57.2598 -1.26465 -114.691 0.105469 -171.96c0.179688 -7.38281 0.438477 -14.7656 0.658203 -22.1484c7.05859 59.1797 15.2803 118.231 26.3262 176.805
c11.4414 60.668 23.5635 131.943 63.7246 181.372c39.876 49.0771 115.091 19.3604 151.4 -19.708c44.9141 -48.3262 61.9072 -123.646 68.6143 -187.319c1.90625 -18.1133 2.79785 -36.9023 2.35449 -55.7754c42.6211 11.9688 84.9746 24.9785 128.039 35.3086
c22.0576 5.29297 39.6523 -20.3965 12.957 -26.8311c-48.1328 -11.5996 -95.3262 -26.5508 -143.047 -39.6348c-4.38379 -39.2393 -15.79 -77.4814 -38.1279 -109.417c-39.9111 -57.0576 -113.826 -89.9502 -179.712 -60.7471
c-21.2891 9.43457 -44.291 23.9414 -49.043 48.9277c-4.98926 26.2432 12.1748 51.8848 29.7832 69.6162c25.9619 26.1416 58.6436 39.3135 93.0342 48.3174c0.988281 5.82422 1.82715 11.5693 2.48145 17.1514c5.9209 50.5186 0.917969 102.416 1.41895 153.136
c0.246094 25.3867 -0.772461 51.498 -6.06934 76.3877c-3.5791 16.8223 -10.9619 67.002 -36.2383 34.834c-30.877 -39.292 -42.6299 -93.4775 -52.7979 -141.251c-12.5088 -58.7529 -21.8115 -118.161 -29.6689 -177.7
c-7.69531 -58.3096 -13.9229 -116.8 -20.3789 -175.259c-4.59863 -41.6504 -6.54004 -85.8965 -15.3857 -127.718c-0.430664 -15.9043 -1.35742 -31.8301 -3.14453 -47.835c-2.37598 -21.2539 -19.0664 -31.5752 -38.9717 -35.1025
c-16.1807 -2.86328 -47.2461 0.492188 -53.8076 19.8525c-19.8174 58.459 -28.918 117.981 -37.5527 178.939zM259 43.0234c12.7412 20.3096 22.5498 45.6426 29.3486 71.2793c-16.5361 -6.1709 -31.9785 -14.2568 -45.2783 -25.6543
c-14.0371 -12.0254 -46.1035 -56.1973 -14.6387 -68.1787c8.23047 -3.13574 6.63574 -2.31836 14.8184 4.53809c6.36816 5.32715 11.1865 10.7422 15.75 18.0156z" />
    <glyph glyph-name="q" unicode="q" horiz-adv-x="508" 
d="M-23.1904 240.176c11.1387 91.5225 44.4648 183.309 136.923 219.982c48.2383 19.1318 108.95 19.3906 149.503 -8.33691c23.7656 38.7559 120.094 38.9092 122.689 -12.6719c3.04395 -60.5938 -1.64648 -121.235 -3.87793 -181.815
c-2.24414 -60.9189 -4.19434 -121.877 -5.61328 -182.822c-0.210938 -9.04297 -0.413086 -18.0771 -0.615234 -27.1162c0.254883 0.342773 0.527344 0.685547 0.777344 1.03223c14.5771 20.0371 28.8115 40.3242 42.6904 60.8486
c29.3047 43.3418 56.9268 87.7676 83.0859 133.072c9.80273 16.9844 52.6436 8.95117 40.1133 -13.0098c-32.708 -57.3174 -67.8145 -113.229 -105.569 -167.371c-18.082 -25.9307 -36.7266 -51.4668 -55.9336 -76.5762
c-2.31934 -3.03906 -4.65137 -6.06934 -6.99219 -9.09082c-0.00878906 -0.395508 -0.0214844 -0.791016 -0.0351562 -1.18652c0.170898 -0.0351562 0.297852 -0.0615234 0.477539 -0.0966797c3.96191 -1.01465 7.92383 -1.72656 11.833 -2.95605
c11.6123 -3.64941 22.9395 -9.13086 33.0674 -15.8857c70.4316 -46.9521 104.492 -157.546 67.502 -234.825c-20.1602 -42.1113 -54.9014 -74.5469 -103.803 -73.8262c-53.2852 0.782227 -98.4404 37.4121 -121.144 84.1094
c-23.4805 48.2998 -22.7207 106.518 -24.8154 158.858c-2.44238 60.9141 -3.58008 121.728 -3.91406 182.699c-0.0390625 6.70215 -0.0869141 13.4268 -0.134766 20.1689c-9.59668 -32.1855 -22.8086 -63.8877 -52.6094 -82.4004
c-31.9658 -19.8564 -79.2559 -20.8096 -112.913 -5.125c-85.9492 40.0469 -100.922 150.311 -90.6924 234.341zM393.875 -73.6406c-6.77734 5.43262 -13.9424 8.69727 -21.251 11.2666c-0.386719 -9.67188 -0.759766 -19.3438 -1.24707 -29.0195
c-2.29688 -45.4893 -9.23633 -93.1084 -3.16602 -138.496c3.29395 -24.6396 16.791 -87.6797 52.2441 -65.4512s37.2236 78.2236 31.2285 114.704c-6.52637 39.709 -25.8955 81.4033 -57.8086 106.996zM112.549 179.68
c-0.983398 -32.6377 1.35156 -66.2607 6.24414 -98.5254c1.81348 -11.9775 5.51562 -24.5957 11.3311 -35.251c2.26172 -4.14648 4.98047 -9.22852 8.7793 -12.2412c6.19727 -4.91504 3.22363 -3.03125 8.6875 -0.720703c27.1611 11.499 36.3496 50.1895 43.6973 75.4482
c9.76367 33.5518 17.6475 67.626 24.4248 101.894c10.1064 51.1113 17.8848 102.666 25.417 154.233c-0.96582 0.768555 -1.85352 1.58594 -2.60059 2.47754c-9.57031 11.4502 -20.4541 25.9131 -32.9189 34.3594c-4.27832 2.90332 -7.40137 3.9043 -11.9912 5.57324
c0.474609 -0.170898 -2.41992 -0.583984 -2.54688 -0.610352c-0.799805 -0.162109 -1.33984 -0.267578 -1.75684 -0.341797c-1.63867 -0.759766 -3.97949 -1.84473 -3.94922 -1.82324c-1.625 -1.22559 -6.93555 -5.46387 -8.93359 -7.51953
c-8.54688 -8.77539 -15.9258 -21.5693 -21.0957 -33.1338c-25.0791 -56.1006 -40.9346 -122.426 -42.7881 -183.818z" />
    <glyph glyph-name="r" unicode="r" horiz-adv-x="465" 
d="M-11.1533 435.766c4.45801 27.8066 46.5928 37.3242 68.8564 37.0078c23.7744 -0.351562 56.7812 -11.916 59.2539 -39.9863c3.9834 -45.1816 4.03613 -90.7715 3.9707 -136.335c9.95703 42.4414 22.8701 84.7246 42.498 122.712
c12.2148 23.6426 32.1201 51.5059 60.6904 55.3486c31.6318 4.25195 52.5557 -13.958 68.6172 -38.8047c20.4404 -31.623 30.1035 -65.6709 36.0684 -102.775c5.47266 -34.0518 13.1104 -68.6182 13.9316 -103.185c0.232422 -9.79395 -4.16895 -24.4375 2.3623 -32.5098
c6.62793 -8.19531 22.2461 -7.75586 31.5664 -6.67969c33.6309 3.86914 63.6426 31.4385 88.7432 51.8965c14.3223 11.6699 50.8994 -1.38379 31.2051 -18.46c-34.6533 -30.0508 -70.9102 -58.2617 -117.304 -66.1152c-37.7324 -6.38574 -79.3438 2.71484 -112.693 21.0166
c-50.6494 27.7979 -50.5312 87.1748 -53.5312 138.031c-1.45801 24.7803 -3.72852 50.7246 -2.37988 75.4346c0.443359 8.15625 2.4502 19.4971 3.36328 30.6709c-4.11523 -6.04785 -7.64258 -12.5176 -10.7744 -19.1016
c-7.37891 -15.5264 -13.2295 -31.8652 -18.7988 -48.1025c-12.1396 -35.3965 -21.5781 -71.6709 -29.3652 -108.257c-13.6855 -64.3135 -22.1758 -129.55 -28.3291 -194.979c0.0742188 -22.4697 -2.08691 -44.9619 -10.8672 -63.7383
c-12.6709 -27.0947 -64.2207 -39.7705 -84.6748 -13.6416c-24.8154 31.6982 -31.2363 74.7324 -36.0498 113.989c-4.57617 37.3594 -9.04297 74.9512 -11.2832 112.534c-4.625 77.5957 -7.40918 157.075 4.92383 234.029z" />
    <glyph glyph-name="s" unicode="s" horiz-adv-x="316" 
d="M147.51 422.893c-43.4424 25.8477 -72.3438 -17.5566 -76.666 -56.7871c-5.50293 -50 22.6289 -86.0195 54.2168 -120.69c17.1162 -18.7939 35.3613 -36.4678 53.3516 -54.4004c44.0703 30.5293 94.3955 53.0078 146.262 62.6484
c9.03027 1.67773 23.6738 1.48438 28.1621 -8.82422c4.30859 -9.88184 -5.65723 -17.7178 -14.2393 -20.002c-48.2119 -12.8203 -94.2197 -32.2119 -134.521 -60.1064c1.30859 -1.3877 2.63086 -2.75781 3.92676 -4.1543c26.208 -28.2939 54.1641 -67.5283 55.2002 -107.76
c2.05566 -79.5938 -96.8809 -128.065 -162.179 -87.9961c-30.7578 18.873 -44.8916 52.0771 -38.4219 87.3945c4.04492 22.084 15.4121 41.6641 29.4141 59.3027c-28.5439 23.6074 -58.3535 46.1436 -81.5967 74.1562c-50.3555 60.6904 -57.3564 157.172 -6.79883 220.73
c40.0166 50.3076 117.779 82.8535 175.544 41.7607c24.0293 -17.0986 -14.1826 -35.6689 -31.6543 -25.2725zM169.829 -13.9219c13.8662 10.7344 1.27344 36.0869 -5.1123 47.0713c-11.1299 19.1494 -25.4873 35.5889 -41.334 50.7764
c-16.6328 -27.6748 -25.457 -63.2861 1.53223 -87.4775c9.5 -8.5166 32.3262 -20.1074 44.9141 -10.3701z" />
    <glyph glyph-name="t" unicode="t" 
d="M-82.5312 617.155c-27.2178 -1.84863 -29.2422 28.4463 -2.12988 30.3213c23.3838 1.61621 46.7764 3.06152 70.1729 4.40137c0.992188 43.0645 2.66602 86.0811 7.58984 128.605c4.49316 38.8047 38.0098 55.8506 74.5742 59.5439
c33.3672 3.36914 76.1641 -11.8623 82.1328 -48.585c7.04492 -43.3242 7.18066 -87.8291 5.00684 -132.308c30.4502 0.870117 60.9004 1.52441 91.3643 1.92383c27.4023 0.360352 29.8887 -30.4238 2.15234 -30.749c-31.7812 -0.373047 -63.5537 -1.03223 -95.3223 -1.91992
c-1.90137 -28.0615 -4.29492 -56.0039 -6.06445 -83.5205c-4.56738 -71.0029 -10.5713 -141.865 -13.9707 -212.942c-3.44824 -72.0391 -3.52734 -143.802 -4.80566 -215.867c-0.457031 -25.8037 0.170898 -53.3164 8.51172 -78.0225
c4.3877 -13.001 9.85547 -22.2598 24.5693 -15.5967c13.0625 5.91211 23.7393 17.6211 32.7783 28.4082c42.9854 51.291 77.6475 110.646 105.388 171.358c7.5498 16.5273 48.6904 13.7959 40.5342 -4.81348c-17.2432 -39.3398 -37.1221 -77.5205 -60.0098 -113.888
c-20.4893 -32.5547 -42.6562 -68.6885 -72.9131 -93.1875c-54.9678 -44.5049 -137.263 -20.8799 -174.508 34.4873c-21.1045 31.373 -29.0938 71.376 -36.376 107.8c-8.34961 41.7598 -12.6582 83.7969 -15.5303 126.265c-5.62207 83.125 -2.16992 167.111 1.72559 250.254
c1.43652 30.5996 1.97266 61.3799 2.55273 92.1865c-22.4785 -1.26953 -44.957 -2.63086 -67.4229 -4.15527z" />
    <glyph glyph-name="u" unicode="u" horiz-adv-x="548" 
d="M42.0254 30.0527c-29.8096 31.6807 -41.1045 76.5762 -51.3027 117.708c-20.2432 81.5791 -15.8818 173.52 -1.17676 255.498c5.29688 29.5195 49.2842 40.0078 73.4404 39.459c23.6123 -0.536133 62.667 -12.6055 63.1982 -42.6436
c1.19922 -67.7041 -8.91602 -135.123 -6.93066 -202.929c0.935547 -31.918 1.49316 -63.9844 6.59668 -95.5771c2.19141 -13.5537 4.76562 -27.8633 9.5791 -40.71c1.90625 -5.09082 9.7334 -25.1455 17.4639 -25.6729c7.51465 -0.513672 20.3613 18.1572 24.9375 24.75
c9.41211 13.5625 17.0938 28.3994 23.7832 43.46c13.1855 29.6816 22.9844 60.8564 31.8037 92.0713c15.1396 53.6016 30.2705 109.276 38.6025 165.052c1.21191 11.5469 2.61719 23.0283 4.22949 34.4219c0.369141 3.91309 0.711914 7.83105 0.99707 11.7441
c0.140625 1.92773 0.768555 3.64062 1.625 5.22168c5.48535 29.998 51.5322 40.6924 75.873 40.1436c22.9004 -0.513672 66.7773 -13.1934 65.4512 -44.1621c-3.13574 -73.1416 -12.5742 -145.576 -12.1924 -218.938c0.18457 -34.9746 0.803711 -69.9443 2.88574 -104.861
c0.961914 -16.0664 1.19043 -54.6816 19.7646 -62.9121c1.71289 -0.759766 4.31738 0.170898 9.92578 3.75879c6.70703 4.29102 12.2061 11.0811 17.1738 17.1602c14.6172 17.8848 26.4756 38.1504 36.9902 58.6523c19.8916 38.7871 37.1221 80.5869 46.7588 123.204
c3.90918 17.2832 43.3154 15.3594 39.332 -4.66895c-10.3525 -52.0645 -31.4961 -103.241 -56.9746 -149.622c-11.8232 -21.5254 -25.3818 -43.1211 -43.6924 -59.7891c-18.5527 -16.8877 -38.3965 -20.0898 -62.4297 -24.0781
c-38.7783 -6.43848 -77.8291 8.2793 -102.403 39.0156c-27.1436 33.9512 -33.9512 79.3389 -40.166 121.139c-1.24707 8.39746 -2.30566 16.8652 -3.26758 25.3643c-1.27832 -4.35742 -2.55664 -8.70605 -3.85254 -13.0322
c-19.5625 -65.3594 -46.9434 -144.804 -120.894 -163.062c-37.8691 -9.35059 -79.0146 7.08008 -105.13 34.834z" />
    <glyph glyph-name="u" unicode="&#xfc;" horiz-adv-x="548" 
d="M42.0254 30.0527c-29.8096 31.6807 -41.1045 76.5762 -51.3027 117.708c-20.2432 81.5791 -15.8818 173.52 -1.17676 255.498c5.29688 29.5195 49.2842 40.0078 73.4404 39.459c23.6123 -0.536133 62.667 -12.6055 63.1982 -42.6436
c1.19922 -67.7041 -8.91602 -135.123 -6.93066 -202.929c0.935547 -31.918 1.49316 -63.9844 6.59668 -95.5771c2.19141 -13.5537 4.76562 -27.8633 9.5791 -40.71c1.90625 -5.09082 9.7334 -25.1455 17.4639 -25.6729c7.51465 -0.513672 20.3613 18.1572 24.9375 24.75
c9.41211 13.5625 17.0938 28.3994 23.7832 43.46c13.1855 29.6816 22.9844 60.8564 31.8037 92.0713c15.1396 53.6016 30.2705 109.276 38.6025 165.052c1.21191 11.5469 2.61719 23.0283 4.22949 34.4219c0.369141 3.91309 0.711914 7.83105 0.99707 11.7441
c0.140625 1.92773 0.768555 3.64062 1.625 5.22168c5.48535 29.998 51.5322 40.6924 75.873 40.1436c22.9004 -0.513672 66.7773 -13.1934 65.4512 -44.1621c-3.13574 -73.1416 -12.5742 -145.576 -12.1924 -218.938c0.18457 -34.9746 0.803711 -69.9443 2.88574 -104.861
c0.961914 -16.0664 1.19043 -54.6816 19.7646 -62.9121c1.71289 -0.759766 4.31738 0.170898 9.92578 3.75879c6.70703 4.29102 12.2061 11.0811 17.1738 17.1602c14.6172 17.8848 26.4756 38.1504 36.9902 58.6523c19.8916 38.7871 37.1221 80.5869 46.7588 123.204
c3.90918 17.2832 43.3154 15.3594 39.332 -4.66895c-10.3525 -52.0645 -31.4961 -103.241 -56.9746 -149.622c-11.8232 -21.5254 -25.3818 -43.1211 -43.6924 -59.7891c-18.5527 -16.8877 -38.3965 -20.0898 -62.4297 -24.0781
c-38.7783 -6.43848 -77.8291 8.2793 -102.403 39.0156c-27.1436 33.9512 -33.9512 79.3389 -40.166 121.139c-1.24707 8.39746 -2.30566 16.8652 -3.26758 25.3643c-1.27832 -4.35742 -2.55664 -8.70605 -3.85254 -13.0322
c-19.5625 -65.3594 -46.9434 -144.804 -120.894 -163.062c-37.8691 -9.35059 -79.0146 7.08008 -105.13 34.834z" />
    <glyph glyph-name="u" unicode="&#xfb;" horiz-adv-x="548" 
d="M42.0254 30.0527c-29.8096 31.6807 -41.1045 76.5762 -51.3027 117.708c-20.2432 81.5791 -15.8818 173.52 -1.17676 255.498c5.29688 29.5195 49.2842 40.0078 73.4404 39.459c23.6123 -0.536133 62.667 -12.6055 63.1982 -42.6436
c1.19922 -67.7041 -8.91602 -135.123 -6.93066 -202.929c0.935547 -31.918 1.49316 -63.9844 6.59668 -95.5771c2.19141 -13.5537 4.76562 -27.8633 9.5791 -40.71c1.90625 -5.09082 9.7334 -25.1455 17.4639 -25.6729c7.51465 -0.513672 20.3613 18.1572 24.9375 24.75
c9.41211 13.5625 17.0938 28.3994 23.7832 43.46c13.1855 29.6816 22.9844 60.8564 31.8037 92.0713c15.1396 53.6016 30.2705 109.276 38.6025 165.052c1.21191 11.5469 2.61719 23.0283 4.22949 34.4219c0.369141 3.91309 0.711914 7.83105 0.99707 11.7441
c0.140625 1.92773 0.768555 3.64062 1.625 5.22168c5.48535 29.998 51.5322 40.6924 75.873 40.1436c22.9004 -0.513672 66.7773 -13.1934 65.4512 -44.1621c-3.13574 -73.1416 -12.5742 -145.576 -12.1924 -218.938c0.18457 -34.9746 0.803711 -69.9443 2.88574 -104.861
c0.961914 -16.0664 1.19043 -54.6816 19.7646 -62.9121c1.71289 -0.759766 4.31738 0.170898 9.92578 3.75879c6.70703 4.29102 12.2061 11.0811 17.1738 17.1602c14.6172 17.8848 26.4756 38.1504 36.9902 58.6523c19.8916 38.7871 37.1221 80.5869 46.7588 123.204
c3.90918 17.2832 43.3154 15.3594 39.332 -4.66895c-10.3525 -52.0645 -31.4961 -103.241 -56.9746 -149.622c-11.8232 -21.5254 -25.3818 -43.1211 -43.6924 -59.7891c-18.5527 -16.8877 -38.3965 -20.0898 -62.4297 -24.0781
c-38.7783 -6.43848 -77.8291 8.2793 -102.403 39.0156c-27.1436 33.9512 -33.9512 79.3389 -40.166 121.139c-1.24707 8.39746 -2.30566 16.8652 -3.26758 25.3643c-1.27832 -4.35742 -2.55664 -8.70605 -3.85254 -13.0322
c-19.5625 -65.3594 -46.9434 -144.804 -120.894 -163.062c-37.8691 -9.35059 -79.0146 7.08008 -105.13 34.834z" />
    <glyph glyph-name="u" unicode="&#xfa;" horiz-adv-x="548" 
d="M42.0254 30.0527c-29.8096 31.6807 -41.1045 76.5762 -51.3027 117.708c-20.2432 81.5791 -15.8818 173.52 -1.17676 255.498c5.29688 29.5195 49.2842 40.0078 73.4404 39.459c23.6123 -0.536133 62.667 -12.6055 63.1982 -42.6436
c1.19922 -67.7041 -8.91602 -135.123 -6.93066 -202.929c0.935547 -31.918 1.49316 -63.9844 6.59668 -95.5771c2.19141 -13.5537 4.76562 -27.8633 9.5791 -40.71c1.90625 -5.09082 9.7334 -25.1455 17.4639 -25.6729c7.51465 -0.513672 20.3613 18.1572 24.9375 24.75
c9.41211 13.5625 17.0938 28.3994 23.7832 43.46c13.1855 29.6816 22.9844 60.8564 31.8037 92.0713c15.1396 53.6016 30.2705 109.276 38.6025 165.052c1.21191 11.5469 2.61719 23.0283 4.22949 34.4219c0.369141 3.91309 0.711914 7.83105 0.99707 11.7441
c0.140625 1.92773 0.768555 3.64062 1.625 5.22168c5.48535 29.998 51.5322 40.6924 75.873 40.1436c22.9004 -0.513672 66.7773 -13.1934 65.4512 -44.1621c-3.13574 -73.1416 -12.5742 -145.576 -12.1924 -218.938c0.18457 -34.9746 0.803711 -69.9443 2.88574 -104.861
c0.961914 -16.0664 1.19043 -54.6816 19.7646 -62.9121c1.71289 -0.759766 4.31738 0.170898 9.92578 3.75879c6.70703 4.29102 12.2061 11.0811 17.1738 17.1602c14.6172 17.8848 26.4756 38.1504 36.9902 58.6523c19.8916 38.7871 37.1221 80.5869 46.7588 123.204
c3.90918 17.2832 43.3154 15.3594 39.332 -4.66895c-10.3525 -52.0645 -31.4961 -103.241 -56.9746 -149.622c-11.8232 -21.5254 -25.3818 -43.1211 -43.6924 -59.7891c-18.5527 -16.8877 -38.3965 -20.0898 -62.4297 -24.0781
c-38.7783 -6.43848 -77.8291 8.2793 -102.403 39.0156c-27.1436 33.9512 -33.9512 79.3389 -40.166 121.139c-1.24707 8.39746 -2.30566 16.8652 -3.26758 25.3643c-1.27832 -4.35742 -2.55664 -8.70605 -3.85254 -13.0322
c-19.5625 -65.3594 -46.9434 -144.804 -120.894 -163.062c-37.8691 -9.35059 -79.0146 7.08008 -105.13 34.834z" />
    <glyph glyph-name="v" unicode="v" horiz-adv-x="425" 
d="M-26.5391 413.115c2.90332 66.4883 133.068 76.6484 143.148 10.0068c14.7402 -97.4395 14.7754 -196.341 34.3291 -293.394c5.98242 -29.6953 11.9863 -72.417 36.1602 -94.373c-4.72559 4.98047 2.90332 5.05957 8.89844 10.2998
c6.86523 6.00391 12.3418 13.8223 17.2871 21.4121c11.3496 17.4062 20.1338 36.4502 27.7803 55.7227c12.4385 31.3594 23.665 64.3613 33.1387 98.04c-37.2539 25.3691 -63.4531 65.873 -65.7061 118.245c-2.0332 47.2061 10.5898 104.409 45.8105 138.25
c15.8076 15.1875 40.4473 25.6846 62.2715 17.4277c17.6172 -6.66309 24.3018 -23.4629 27.8154 -40.7109c11.4814 -56.377 -0.126953 -120.212 -11.459 -175.732c-3.10059 -15.2188 -6.32422 -30.5518 -9.79395 -45.876
c31.7637 -15.1133 70.0186 -16.7734 105.651 0.355469c18.8379 9.05664 49.2969 -11.9287 23.6777 -24.2881c-43.9473 -21.2051 -93.8594 -22.751 -137.069 -8.09863c-7.94141 -30.8984 -17.4023 -61.3926 -29.9023 -90.3721
c-19.6719 -45.6162 -44.29 -87.1172 -91.7559 -107.225c-24.9385 -10.5674 -57.1016 -13.2725 -81.6846 -0.974609c-25.7422 12.8779 -44.3076 34.1621 -59.8164 57.8447c-33.209 50.7158 -48.4932 114.134 -60.4092 172.874
c-11.9951 59.1182 -21.0078 120.151 -18.3721 180.565zM253.182 330.703c3.14941 -27.4336 14.6816 -51.2207 31.4111 -69.6367c8.89844 38.0537 15.2979 76.5107 18.3242 114.076c1.82227 22.6152 3.10059 46.3066 0.105469 68.8691
c-0.601562 4.51465 -1.66895 20.1416 -6.10547 22.2412c-4.22949 1.99805 -14.0586 -11.8506 -16.834 -15.6758c-23.5283 -32.4619 -31.3945 -80.7051 -26.9014 -119.874z" />
    <glyph glyph-name="w" unicode="w" horiz-adv-x="641" 
d="M232.951 321.891c3.69336 63.5625 134.139 75.2041 138.829 9.70898c3.5791 -49.9385 -0.839844 -100.241 1.9668 -150.271c1.34863 -24.0469 2.46875 -48.2119 5.55176 -72.1143c2.5166 -19.5098 3.54395 -40.5264 11.1338 -58.8369
c5.85449 -14.125 14.0938 -30.5254 31.0693 -20.5029c14.2305 8.40234 25.4746 28.7158 33.3057 42.5771c20.5811 36.4111 32.8486 78.3027 43.6006 118.495c0.983398 3.67578 1.92773 7.3916 2.88086 11.1025c-6.00879 2.50781 -11.9033 5.2832 -17.5732 8.50684
c-48.3262 27.4814 -75.7988 72.2197 -76.1416 128.188c-0.28125 46.0029 13.251 95.4229 39.3359 133.463c20.6826 30.1611 73.8584 75.5312 105.398 31.25c16.3652 -22.9795 16.3477 -57.752 17.0107 -84.5439c0.667969 -27.0469 0.00878906 -54.1328 -1.92773 -81.1182
c-2.80664 -39.0762 -8.22656 -77.9814 -16.2461 -116.333c32.7041 -6.24512 68.333 -0.610352 98.7305 9.97461c23.7393 8.27051 42.0762 -19.4834 14.1113 -29.2207c-36.9336 -12.8604 -79.7783 -18.2451 -119.966 -11.9912
c-2.01562 -8.07715 -4.11523 -16.1367 -6.37695 -24.1523c-14.1865 -50.3115 -31.3682 -105.459 -67.7656 -144.558c-37.1094 -39.8633 -88.4971 -52.6445 -137.495 -23.8193c-49.5566 29.1553 -69.2549 88.5371 -82.4141 141.493
c-3.06152 -12.9219 -6.46973 -25.7646 -10.3613 -38.4932c-10.0488 -32.8789 -22.6758 -67.6338 -51.5889 -88.6064c-26.5859 -19.2861 -63.2119 -28.29 -94.9365 -18.1885c-81.3506 25.9043 -101.603 117.173 -110.496 192.05
c-10.0488 84.5791 -2.55566 171.398 12.4834 254.884c5.19629 28.8604 48.1689 39.1162 71.8027 38.5801c21.9033 -0.500977 62.6934 -12.4258 61.7891 -41.6953c-2.07324 -67.0459 -10.0977 -133.587 -12.5664 -200.637
c-1.23438 -33.5518 -0.975586 -66.7295 0.420898 -100.272c1.11133 -26.6904 2.15625 -55.3311 12.2627 -80.3574c3.36426 -8.32715 8.17773 -23.1152 17.748 -26.6855c3.54883 -1.32617 -9.59668 -8.24805 6.84277 1.30469c6.9834 4.05859 12.8027 10.0977 17.7002 16.4131
c19.1934 24.7676 27.6436 59.5137 35.6592 89.2744c12.7197 47.2236 20.0195 95.5459 25.334 144.092c-0.15332 13.8486 0.105469 27.5869 0.887695 41.04zM471.776 320.55c5.58691 -27.5693 15.1797 -63.5195 38.1592 -82.2119
c15.2803 70.0674 23.3926 144.352 15.6934 214.498c-0.773438 7.02344 -2.2627 33.2529 -10.5195 36.916c2.44629 2.61816 1.79199 2.31934 -1.96777 -0.891602c-1.12891 -0.852539 -2.25781 -1.70508 -3.38672 -2.55273
c-3.63184 -3.29883 -6.88672 -7.51562 -9.93066 -11.4199c-11.2129 -14.3838 -19.3643 -30.7051 -25.0215 -48.001c-11.2656 -34.4648 -10.168 -71.0684 -3.02637 -106.337z" />
    <glyph glyph-name="x" unicode="x" horiz-adv-x="332" 
d="M131.25 325.703c23.6602 42.1641 48.3125 83.7783 74.0156 124.774c10.8662 17.3359 55.7627 8.58691 41.7559 -13.541c-37.2891 -58.8984 -72.4131 -119.07 -105.38 -180.38c0.944336 -6.64941 1.88379 -13.2949 2.82812 -19.9531
c7.38281 -52.126 15.1787 -105.091 32.8135 -154.893c6.68945 -18.8906 16.3916 -43.2051 33.042 -55.7969c17.832 -13.4795 43.7451 17.9502 53.1533 31.5527c31.7461 45.8936 44.9844 106.693 60.2207 159.618c5.22266 18.1523 47.5146 15.7676 41.7393 -4.9541
c-17.2695 -61.9375 -32.3125 -139.182 -78.6846 -186.92c-43.3984 -44.6807 -115.859 -53.0518 -169.236 -22.2012c-29.001 16.7646 -49.9385 42.3623 -65.7588 71.5791c-11.4023 -25.2324 -22.4795 -50.6191 -33.1699 -76.1855
c-7.60742 -18.1875 -51.8848 -15.0293 -43.5488 5.16992c17.1289 41.5098 35.2246 82.6064 54.2031 123.282c-6.95703 20.1377 -12.5088 40.5527 -17.3975 59.918c-18.9648 75.1182 -32.708 151.089 -34.9346 228.627c-1.87109 65.0996 119.874 68.2617 134.521 9.40723
c8.16504 -32.8096 14.4023 -65.8779 19.8174 -99.1045z" />
    <glyph glyph-name="y" unicode="y" horiz-adv-x="537" 
d="M49.4512 470.964c24.042 2.43359 72.5752 -9.99316 71.1562 -42.082c-3.49609 -78.79 -7.69922 -157.304 -5.46387 -236.195c1.00977 -35.7031 3.21875 -72.751 10.8652 -107.703c2.9209 -13.3564 6.29883 -26.6035 12.7373 -38.7656
c3.79883 -7.17676 13.8828 -22.9707 23.4141 -23.6426c12.0078 -0.84375 25.707 26.4619 30.2832 34.8027c9.22754 16.8311 16.7471 34.7725 23.2871 52.7979c12.0605 33.2266 21.1387 67.6475 28.7852 102.135c13.2383 59.7109 21.3457 120.322 28.2324 181.057
c0.703125 15.0957 1.73535 30.1875 3.33398 45.2705c3.72461 35.1543 34.7021 50.6055 67.5332 53.9219c28.7949 2.90723 70.9023 -10.5234 74.3857 -44c8.75781 -84.1572 4.4668 -169.369 3.56641 -253.869c-0.170898 -16.3252 -0.452148 -32.6465 -0.737305 -48.9629
c38.9541 29.6953 79.6689 58.2744 122.742 79.6855c12.5439 6.23242 43.416 -5.24414 25.123 -19.4922c-48.208 -37.5391 -100.237 -69.8301 -148.845 -107.058c-1.25195 -52.9297 -2.98242 -105.846 -5.21777 -158.779
c-3.03906 -71.8379 -7.67676 -144.088 -22.2363 -214.674c-12.6318 -61.2266 -34.1973 -130.271 -81.7109 -173.63c-42.4238 -38.7168 -106.593 -43.1924 -156.447 -16.5059c-48.3525 25.8828 -76.4707 77.6436 -84.2451 130.529
c-18.3418 124.736 71.8193 227.999 153.548 309.662c18.9561 18.9385 38.374 37.4209 58.1914 55.459c-0.193359 4.20801 -0.360352 8.41602 -0.557617 12.624c-1.92773 40.7988 -3.4082 81.6104 -4.76562 122.427c-11.832 -50.6807 -28.0654 -103.931 -58.1865 -143.429
c-38.9053 -51.0234 -109.157 -50.54 -155.934 -10.8662c-54.374 46.1172 -70.5986 121.341 -79.0449 188.672c-9.07812 72.3994 -4.93164 146.652 1.60352 219.03c3.03906 33.6436 33.6299 48.4541 64.6035 51.5811zM280.191 -334.613
c10.4404 60.4053 11.0371 122.997 8.69141 184.101c-1.66895 43.5605 -3.21973 87.126 -4.97266 130.687c-11.1514 -10.8662 -22.1709 -21.8643 -33.002 -33.0381c-73.9238 -76.2646 -149.591 -170.801 -129.923 -284.161
c8.18262 -47.1533 40.0742 -102.318 91.835 -110.066c50.2412 -7.52344 61.5469 78.7861 67.3711 112.479z" />
    <glyph glyph-name="y" unicode="&#xff;" horiz-adv-x="537" 
d="M49.4512 470.964c24.042 2.43359 72.5752 -9.99316 71.1562 -42.082c-3.49609 -78.79 -7.69922 -157.304 -5.46387 -236.195c1.00977 -35.7031 3.21875 -72.751 10.8652 -107.703c2.9209 -13.3564 6.29883 -26.6035 12.7373 -38.7656
c3.79883 -7.17676 13.8828 -22.9707 23.4141 -23.6426c12.0078 -0.84375 25.707 26.4619 30.2832 34.8027c9.22754 16.8311 16.7471 34.7725 23.2871 52.7979c12.0605 33.2266 21.1387 67.6475 28.7852 102.135c13.2383 59.7109 21.3457 120.322 28.2324 181.057
c0.703125 15.0957 1.73535 30.1875 3.33398 45.2705c3.72461 35.1543 34.7021 50.6055 67.5332 53.9219c28.7949 2.90723 70.9023 -10.5234 74.3857 -44c8.75781 -84.1572 4.4668 -169.369 3.56641 -253.869c-0.170898 -16.3252 -0.452148 -32.6465 -0.737305 -48.9629
c38.9541 29.6953 79.6689 58.2744 122.742 79.6855c12.5439 6.23242 43.416 -5.24414 25.123 -19.4922c-48.208 -37.5391 -100.237 -69.8301 -148.845 -107.058c-1.25195 -52.9297 -2.98242 -105.846 -5.21777 -158.779
c-3.03906 -71.8379 -7.67676 -144.088 -22.2363 -214.674c-12.6318 -61.2266 -34.1973 -130.271 -81.7109 -173.63c-42.4238 -38.7168 -106.593 -43.1924 -156.447 -16.5059c-48.3525 25.8828 -76.4707 77.6436 -84.2451 130.529
c-18.3418 124.736 71.8193 227.999 153.548 309.662c18.9561 18.9385 38.374 37.4209 58.1914 55.459c-0.193359 4.20801 -0.360352 8.41602 -0.557617 12.624c-1.92773 40.7988 -3.4082 81.6104 -4.76562 122.427c-11.832 -50.6807 -28.0654 -103.931 -58.1865 -143.429
c-38.9053 -51.0234 -109.157 -50.54 -155.934 -10.8662c-54.374 46.1172 -70.5986 121.341 -79.0449 188.672c-9.07812 72.3994 -4.93164 146.652 1.60352 219.03c3.03906 33.6436 33.6299 48.4541 64.6035 51.5811zM280.191 -334.613
c10.4404 60.4053 11.0371 122.997 8.69141 184.101c-1.66895 43.5605 -3.21973 87.126 -4.97266 130.687c-11.1514 -10.8662 -22.1709 -21.8643 -33.002 -33.0381c-73.9238 -76.2646 -149.591 -170.801 -129.923 -284.161
c8.18262 -47.1533 40.0742 -102.318 91.835 -110.066c50.2412 -7.52344 61.5469 78.7861 67.3711 112.479z" />
    <glyph glyph-name="y" unicode="&#xfd;" horiz-adv-x="537" 
d="M49.4512 470.964c24.042 2.43359 72.5752 -9.99316 71.1562 -42.082c-3.49609 -78.79 -7.69922 -157.304 -5.46387 -236.195c1.00977 -35.7031 3.21875 -72.751 10.8652 -107.703c2.9209 -13.3564 6.29883 -26.6035 12.7373 -38.7656
c3.79883 -7.17676 13.8828 -22.9707 23.4141 -23.6426c12.0078 -0.84375 25.707 26.4619 30.2832 34.8027c9.22754 16.8311 16.7471 34.7725 23.2871 52.7979c12.0605 33.2266 21.1387 67.6475 28.7852 102.135c13.2383 59.7109 21.3457 120.322 28.2324 181.057
c0.703125 15.0957 1.73535 30.1875 3.33398 45.2705c3.72461 35.1543 34.7021 50.6055 67.5332 53.9219c28.7949 2.90723 70.9023 -10.5234 74.3857 -44c8.75781 -84.1572 4.4668 -169.369 3.56641 -253.869c-0.170898 -16.3252 -0.452148 -32.6465 -0.737305 -48.9629
c38.9541 29.6953 79.6689 58.2744 122.742 79.6855c12.5439 6.23242 43.416 -5.24414 25.123 -19.4922c-48.208 -37.5391 -100.237 -69.8301 -148.845 -107.058c-1.25195 -52.9297 -2.98242 -105.846 -5.21777 -158.779
c-3.03906 -71.8379 -7.67676 -144.088 -22.2363 -214.674c-12.6318 -61.2266 -34.1973 -130.271 -81.7109 -173.63c-42.4238 -38.7168 -106.593 -43.1924 -156.447 -16.5059c-48.3525 25.8828 -76.4707 77.6436 -84.2451 130.529
c-18.3418 124.736 71.8193 227.999 153.548 309.662c18.9561 18.9385 38.374 37.4209 58.1914 55.459c-0.193359 4.20801 -0.360352 8.41602 -0.557617 12.624c-1.92773 40.7988 -3.4082 81.6104 -4.76562 122.427c-11.832 -50.6807 -28.0654 -103.931 -58.1865 -143.429
c-38.9053 -51.0234 -109.157 -50.54 -155.934 -10.8662c-54.374 46.1172 -70.5986 121.341 -79.0449 188.672c-9.07812 72.3994 -4.93164 146.652 1.60352 219.03c3.03906 33.6436 33.6299 48.4541 64.6035 51.5811zM280.191 -334.613
c10.4404 60.4053 11.0371 122.997 8.69141 184.101c-1.66895 43.5605 -3.21973 87.126 -4.97266 130.687c-11.1514 -10.8662 -22.1709 -21.8643 -33.002 -33.0381c-73.9238 -76.2646 -149.591 -170.801 -129.923 -284.161
c8.18262 -47.1533 40.0742 -102.318 91.835 -110.066c50.2412 -7.52344 61.5469 78.7861 67.3711 112.479z" />
    <glyph glyph-name="z" unicode="z" horiz-adv-x="399" 
d="M53.9131 442.709c-24.46 -2.60938 -25.3096 23.4844 -1.89062 26.9238c47.5186 6.98828 95.5596 7.24707 143.14 0.496094c31.0176 -4.40137 91.6855 -10.3047 102.731 -47.791c4.93262 -16.7432 -5.7666 -45.5732 -11.916 -60.9893
c-8.32324 -20.876 -22.9619 -40.9258 -35.7256 -59.3066c-17.6787 -25.457 -37.623 -49.2539 -58.1299 -72.5186c28.8828 -21.3018 52.1914 -49.5605 73.1816 -80.0068c3.69824 -5.36719 7.25586 -10.7959 10.7256 -16.2637c38.8789 28.584 80.3408 53.6582 123.88 74.9775
c20.4062 9.9873 53.4131 -12.7422 25.6992 -26.3623c-46.1348 -22.6719 -90.0117 -49.8594 -130.63 -81.2676c17.2607 -32.4971 30.7002 -66.7246 39.7568 -102.96c23.8184 -95.2871 -5.11719 -208.771 -79.3438 -275.289
c-37.2061 -33.3408 -99.5391 -49.9033 -144.743 -21.9873c-35.541 21.9561 -58.6562 54.6289 -61.4141 97.3203c-6.07031 94.0527 64.0234 182.611 125.136 246.429c3.11816 3.25879 6.28906 6.46094 9.45996 9.6582c-24.9297 53.4697 -61.3799 107.189 -114.704 131.004
c-27.8281 12.4297 -22.6582 43.8418 -4.2334 60.5625c27.2051 24.6836 54.291 49.4023 80.2744 75.377c24.9561 24.9424 46.8818 52.5029 71.416 77.7402c5.77539 5.93848 14.542 14.1299 16.7471 22.418c2.48633 9.36426 2.49512 7.04102 -5.6123 10.6289
c-16.8486 7.45312 -39.8721 8.71777 -58.1826 10.9619c-38.4307 4.70801 -77.1602 4.34766 -115.622 0.245117zM204.645 -196.704c26.7744 66.1455 20.1465 143.68 -3.94434 210.049c-48.5898 -53.2549 -97.4561 -119.233 -103.131 -192.331
c-1.5459 -19.9229 0.408203 -41.6416 10.9014 -59.1094c6.77246 -11.2744 19.4131 -25.1318 31.4648 -23.9463c30.5732 3.00879 54.4316 39.9512 64.709 65.3379z" />
    <glyph glyph-name="braceleft" unicode="{" horiz-adv-x="557" 
d="M498.968 -133.257c9.96973 -6.46094 11.3418 -18.2295 1.81543 -25.9551c-45.498 -36.876 -116.237 -39.2432 -168.082 -14.8096c-58.8105 27.7139 -96.416 82.9707 -113.515 144.263c-19.4971 69.9092 -27.1523 143.271 -38.5234 214.84
c-4.36621 27.4902 -6.68555 56.7109 -18.8076 82.1592c-3.84766 8.07227 -7.97168 15.2441 -15.4072 20.3877c-8.55176 5.91211 -2.79395 2.2627 -8.1875 3.48828c-1.5332 0.263672 -3.0752 0.474609 -4.62109 0.65918
c-0.0302734 -0.00488281 -0.0566406 -0.0136719 -0.0869141 -0.0175781c-22.207 -6.14062 -49.6934 -3.29883 -68.1621 11.085c-14.5381 11.3271 -21.627 32.8877 -8.40625 48.541c37.1357 43.9736 70.4453 87.416 98.9717 137.609
c28.5752 50.2812 54.4092 102.038 81.7109 153.021c28.2197 52.7051 54.335 112.565 100.725 152.002c32.0361 27.2354 95.7393 59.1221 123.581 8.62109c10.1543 -18.4209 -29.4102 -24.377 -38.8887 -10.252c-17.6826 26.3525 -36.3975 -33.2656 -40.3682 -43.0684
c-9.1709 -22.6455 -16.752 -46.0117 -24.8906 -69.0527c-15.2188 -43.0781 -27.7842 -87.3994 -45.0234 -129.718c-26.9062 -66.0352 -58.3623 -133.938 -102.438 -191.303c4.24316 -1.91016 8.44238 -4.04492 12.584 -6.51758
c24.6748 -14.7139 43.8994 -37.9521 54.6816 -64.4941c10.5898 -26.0674 15.1445 -54.3965 19.9404 -81.9658c5.96484 -34.2803 11.9297 -68.5566 17.8945 -102.837c10.6338 -61.125 15.5088 -127.455 43.2402 -183.797c18.2666 -37.1045 57.2773 -85.8701 102.647 -55.5205
c10.5371 7.0498 26.248 10.001 37.6152 2.63086z" />
    <glyph glyph-name="verticalbar" unicode="|" horiz-adv-x="248" 
d="M187.896 355.19c8.41113 -156.395 14.4209 -314.525 6.21191 -470.994c-1.80469 -34.417 -35.4658 -49.6621 -66.0654 -52.7539c-26.9629 -2.72754 -70.9893 10.1895 -72.7676 43.043c-8.47656 156.623 -4.9668 314.546 -1.63281 471.318
c1.67383 78.7949 2.74121 157.673 7.17676 236.375c2.14355 38.0186 3.94824 76.2295 7.59766 114.129c3.4043 35.3174 0.852539 84.1318 20.7139 114.556c7.24707 11.0947 32.1152 13.9805 40.6143 2.83789c21.9346 -28.7549 22.708 -76.1807 28.04 -111.146
c5.6875 -37.3242 9.63574 -75.0967 13.4697 -112.658c7.97168 -78.0479 12.4297 -156.386 16.6416 -234.706z" />
    <glyph glyph-name="braceright" unicode="}" horiz-adv-x="494" 
d="M441.113 384.469c10.0186 -21.3848 -6.87598 -42.1885 -25.5508 -51.1699c-15.8027 -7.60254 -28.1973 -18.0166 -40.4473 -36.0332c-11.4199 -16.7959 -18.7725 -35.5938 -24.2842 -55.0908c-15.7637 -55.7754 -10.2871 -114.814 -13.4932 -172.039
c-5.56055 -99.1787 -53.6016 -255.174 -175.347 -258.007c-11.9424 -0.276367 -28.7988 3.11426 -32.2822 16.6992c-3.41309 13.291 9.71484 22.2598 20.9102 25.4443c14.5908 4.14648 25.8086 28.8389 31.2461 41.8398c10.0625 24.0684 15.2539 49.7012 20.6475 75.1055
c12.0039 56.5264 11.4502 113.642 12.8027 171.126c1.7832 75.8125 16.585 158.89 66.7471 214.99c-54.0938 43.0029 -85.2598 121.195 -109.917 181.763c-19.4707 47.8213 -33.3545 97.7422 -42.8369 148.515c-5.73633 30.7275 -15.3027 108.973 -58.7451 108.959
c-25.8389 -0.00488281 -28.2285 26.541 -2.0293 29.0537c45.0811 4.31738 91.6025 -17.9238 118.75 -53.6094c29.6777 -39.0156 42.1123 -91.0576 61.9336 -135.339c21.1787 -47.3115 41.9932 -94.623 67.2871 -139.94c10.6514 -19.0791 21.1748 -39.1426 34.5352 -56.4824
c5.6875 -7.38281 12.4473 -15.4727 19.835 -21.2178c4.37891 -3.4082 18.7627 -6.81641 7.19434 -6.86914c22.417 0.105469 52.2393 -4.63379 63.0439 -27.6973z" />
    <glyph glyph-name="nonbreakingspace" unicode="&#xa0;" 
 />
    <glyph glyph-name="exclamdown" unicode="&#xa1;" horiz-adv-x="249" 
d="M195.071 57.9453c1.20801 -50.2061 10.7686 -107.417 -6.87012 -155.265c-12.6094 -34.1973 -69.2324 -33.7842 -87.5342 -6.12305c-28.8389 43.5869 -31.1973 105.604 -37.5303 156.469c-6.37305 51.1816 -9.25 102.745 -11.3672 154.261
c-2.17871 52.9951 -2.2666 105.894 -0.689453 158.906c1.56348 52.7363 3.07422 107.295 17.5508 158.261c13.8174 48.6426 118.89 51.4404 125.676 -2.92969c6.52246 -52.2842 0.817383 -105.692 -0.728516 -158.23c-1.47559 -50.1318 -2.06445 -100.373 -1.89355 -150.526
c0.175781 -51.625 2.14355 -103.215 3.38672 -154.822zM162.401 629.932c-4.64648 -38.6328 -83.6562 -48.2197 -87.0781 -6.09082c-3.29395 40.5127 0.43457 79.9229 6.25391 120.066c3.34277 23.0635 41.2422 29.9941 58.7275 27.877
c20.7129 -2.50781 41.8389 -16.1191 37.1963 -39.2656c-6.79883 -33.8896 -10.9756 -68.2842 -15.0996 -102.587z" />
    <glyph glyph-name="cent" unicode="&#xa2;" horiz-adv-x="489" 
d="M398.512 220.695c4.27344 17.915 43.4404 15.916 40.542 -4.81445c-7.3877 -52.5957 -27.8945 -102.1 -57.541 -146.108c-18.8242 -27.9336 -44.1494 -57.5186 -73.5146 -77.9688c3.54492 -29.0889 7.42285 -57.7256 6.8252 -87.2979
c-0.53125 -26.3965 -55.6387 -36.1904 -63.3252 -10.4092c-6.88281 23.0811 -10.5146 46.957 -12.2148 71.1621c-36.5469 -3.63672 -73.4893 7.76562 -102.916 31.4346c-40.5479 32.6162 -59.5088 82.7393 -71.043 131.927
c-22.6768 96.7363 -19.7471 211.037 5.81543 306.864c26.4756 99.2666 87.9824 202.802 199.547 214.818c1.33984 0.144531 2.66602 0.227539 3.99707 0.341797c2.39355 35.374 4.875 70.7441 7.45801 106.105c1.30859 17.9502 39.4326 20.0713 38.4053 2.68262
c-2.17383 -36.7529 -4.23828 -73.5107 -6.20996 -110.272c26.8096 -4.94531 49.9082 -18.7451 65.8652 -45.2783c24.583 -40.8643 29.0107 -90.1699 34.1982 -136.533c2.23145 -19.9756 -40.6094 -23.0371 -43.3369 -3.03125
c-5.58203 40.9209 -11.0322 89.998 -36.4756 124.296c-7.58984 10.2295 -15.1445 14.9688 -22.5186 15.9658c-4.75684 -92.6602 -8.93359 -185.352 -12.3594 -278.069c-2.5957 -70.2295 -5.43262 -140.06 -1.9668 -210.303
c1.27832 -25.874 2.98242 -51.7393 5.29688 -77.543c51.3838 45.3662 80.0469 117.349 95.4717 182.031zM255.024 319.017c4.37012 86.3135 9.39453 172.591 14.915 258.839c-3.07031 -3.67188 -6.0127 -7.38281 -8.79688 -10.9053
c-21.6797 -27.4287 -30.5742 -60.3076 -39.9072 -93.4238c-10.7822 -38.2598 -18.8193 -78.373 -23.9453 -117.797c-9.6582 -74.249 -8.64844 -151.261 0.0917969 -225.522c3.49219 -29.6729 15.1885 -84.0342 41.0137 -104.703
c0.8125 26.3613 2.7627 52.666 4.33984 78.3428c4.41016 71.7363 8.65723 143.376 12.2891 215.17z" />
    <glyph glyph-name="sterling" unicode="&#xa3;" horiz-adv-x="403" 
d="M352.011 9.53516c4.67773 -18.2227 -13.3691 -30.9277 -28.8779 -35.1484c-45.2217 -12.2764 -92.2744 -9.47852 -138.3 -14.9863c-45.6162 -5.46387 -93.833 13.1279 -97.7197 64.5332c-1.51562 20.0195 4.20703 44.4395 7.01758 64.1074
c2.33203 16.3076 4.33496 32.5801 5.75391 48.998c3.51367 40.7236 3.77246 81.4824 5.48145 122.29c0.413086 9.86426 0.786133 19.7285 1.14648 29.584c-12.4863 -0.974609 -24.9775 -1.9668 -37.4688 -2.90625c-24.1963 -1.82715 -25.8965 24.9473 -1.88477 26.9238
c13.4443 1.10645 26.8887 2.26562 40.333 3.41211c2.16992 60.9053 4.52441 121.644 12.2373 182.312c4.58496 36.0986 12.1309 72.5488 33.0771 103.008c20.8975 30.3848 52.6523 43.9648 88.1016 48.959c68.2139 9.61035 109.562 -54.4395 109.812 -116.136
c0.0791016 -19.5928 -40.7676 -22.5088 -42.1025 -2.94238c-1.96289 28.7686 -13.334 66.4619 -39.6387 82.8398c-27.1523 16.9004 -32.7695 -26.4414 -33.2529 -45.7275c-1.58594 -62.9219 5.38867 -126.555 8.41504 -189.41
c0.808594 -16.8047 1.66504 -33.5869 2.44727 -50.3516c22.0752 2.1084 44.1504 4.26074 66.2168 6.47461c25.7031 2.57422 27.4648 -26.251 2.00391 -28.627c-22.3291 -2.08594 -44.667 -4.10156 -67.0098 -6.07812c1.55957 -39.8809 2.31055 -79.7393 0.523438 -119.795
c-1.57715 -35.3613 -4.625 -70.7051 -9.64062 -105.75c-2.37598 -16.6152 -5.85938 -33.5684 -11.2744 -49.4902c-0.0175781 -0.0478516 -0.0351562 -0.109375 -0.0527344 -0.157227c26.7256 -0.413086 56.1748 6.13086 80.0723 7.12305
c16.4482 0.685547 39.8232 -4.49707 44.584 -23.0586zM221.486 9.96191c-2.57812 -4.625 -0.254883 -3.37793 0 0z" />
    <glyph glyph-name="currency" unicode="&#xa4;" horiz-adv-x="430" 
d="M373.382 173.849c21.5127 -16.4307 -13.9092 -35.5469 -29.585 -23.6309c-14.5205 11.0508 -28.9355 22.167 -43.1699 33.4639c-50.5098 -47.8125 -141.457 -57.9365 -191.329 -3.10547c-0.619141 0.680664 -1.19043 1.41016 -1.79199 2.11328
c-6.03027 -6.35938 -12.0215 -12.7627 -17.9336 -19.2451c-11.7617 -12.8955 -51.0977 -4.48047 -36.2871 11.7656c11.7969 12.9434 23.8398 25.6279 36.0723 38.1143c-19.9443 50.2285 -11.2783 119.619 10.7529 165.218
c-11.5645 10.0273 -23.6865 19.4004 -36.6035 27.8066c-21.5957 14.0547 12.3994 31.6055 27.9209 22.2939c12.1797 -7.30859 23.626 -15.3809 34.5576 -24.0029c18.3418 6.83887 43.0039 5.43359 58.0557 -4.44434c8.70508 1.64746 17.2783 2.25391 22.9443 2.58789
c29.7832 1.75684 55.9424 -4.69043 79.1328 -21.8066c13.2559 9.35059 26.6689 18.499 40.2627 27.3975c8.0332 5.25781 20.2656 7.87109 28.9004 2.02051c6.93066 -4.69922 9.54395 -14.6035 1.39258 -19.9395c-15.9043 -10.4141 -31.5713 -21.166 -47.0312 -32.1943
c31.707 -40.2363 37.8213 -99.8418 13.7705 -144.888c16.334 -13.4307 32.9932 -26.5635 49.9688 -39.5244zM196.656 369.393c-1.98926 -8.95508 -4.02051 -17.6514 -5.8916 -26.2295c6.24121 -6.7334 12.4258 -13.541 18.6016 -20.3887
c6.4873 5.27539 13.0186 10.4932 19.5977 15.6543c-2.0332 4.59375 -4.3877 8.96875 -7.18066 12.8994c-3.9707 5.58691 -10.1807 12.2275 -15.8418 16.1104c-2.58301 2.22656 -5.54297 3.71582 -8.86816 4.50684c-0.126953 -0.84375 -0.223633 -1.67871 -0.416992 -2.55273
zM209.404 217.882c10.1191 6.08789 16.9277 15.1094 21.416 25.4971c-10.084 9.47363 -19.8916 19.2939 -29.4707 29.3916c-5.52051 -4.81836 -11.002 -9.68066 -16.4434 -14.5869c0.355469 -2.23535 0.737305 -4.47949 1.19434 -6.75488
c2.66602 -13.1982 6.9834 -23.2432 16.2197 -32.5938c0.285156 -0.285156 2.49414 -1.06738 3.86035 -1.68652c1.27344 0.126953 2.56934 0.337891 3.22363 0.733398zM231.607 298.442c2.2793 -2.4375 4.52539 -4.92578 6.83594 -7.32422
c-0.100586 3.91797 -0.324219 7.74316 -0.635742 11.4014c-0.0263672 0.293945 -0.0742188 0.59668 -0.100586 0.890625c-2.0332 -1.65625 -4.0752 -3.29883 -6.09961 -4.96777z" />
    </font>
</defs>
</svg>
